DNS SERVER AENDERNum der staatlichen Zensur zu umgehen. Sollten wir von eurem Provider geseprrt werden, nutzt den TOR BROWSER oder ändert euren DNS SERVER.

Filmwünsche können bei uns im Forum abgegeben werden

Wir Speichern Nicht




 
 
 
Top Releases
Im.Zweifel.gluecklich.2017.G...
Deadpool.2.Super.Duper.Cut.2...
Diplomatie.2014.German.AC3.1...
Die.Spur.2017.GERMAN.1080p.B...
Die.Spur.2017.GERMAN.720p.Bl...
Ataris.Reise.2018.German.DL....
Ataris.Reise.2018.German.720...
Stronger.2017.German.DL.1080...
Stronger.2017.German.720p.Bl...
Nur.Gott.kann.mich.richten.2...

Cinedubs
The.Equalizer.2.TS.LD.German...
Der.Hauptmann.2017.German.AA...
Der.Hauptmann.2017.German.AA...
Ghost.Stories.2017.German.AC...
Ghost.Stories.2017.German.AC...
Oceans.8.German.DL.AC3.Dubbe...
Oceans.8.German.DL.AC3.Dubbe...
Hereditary.Das.Vermaechtnis....
Hereditary.Das.Vermaechtnis....
Oceans.8.2018.German.DL.AC3D...

Neuerscheinungen 2017-18
Hot.Dog.2018.German.AC3.1080...
Luna.2017.German.AC3.1080p.B...
Die.Gesetze.der.Thermodynami...
Die.Gesetze.der.Thermodynami...
Kings.2017.German.720p.BluRa...
Kings.2017.German.DL.1080p.B...
Winchester.Das.Haus.der.Verd...
Bodycheck.Youngblood.1986.MU...
The.End.2017.GERMAN.DUAL.COM...
The.End.2017.GERMAN.1080p.Bl...

XXX
RoccoSiffredi.18.08.21.Nancy...
Private.Specials.219.Anal.Lo...
RKPrime.18.08.16.Rose.Monroe...
SexArt.18.08.17.Katy.Sky.And...
WoodmanCastingX.18.06.03.Lin...
PrivateSociety.18.08.15.Audr...
Spizoo.18.08.15.Rocky.Emerso...
PornMegaLoad.18.08.19.Codi.V...
SpyFam.18.08.20.Alina.Lopez....
ThaiGirlsWild.18.08.13.Nicha...
With.Milf.And.Sugar.Please.2...
RoccoSiffredi.18.08.17.Lucia...
Spizoo.18.08.17.Lexi.Lore.Tr...
TeensDoPorn.18.08.20.April.R...
X-Art.18.08.15.Milla.Inside....
ZeroTolerance.Nerdy.Girls.Lo...
RKPrime.18.08.17.Riley.Reid....
PureTaboo.18.08.21.Gracie.Ma...
Yonitale.18.08.17.Nedda.Y.An...
PornMegaLoad.18.08.20.Sofia....

3D
Avengers.Infinity.War.3D.201...
Rampage.Big.Meets.Bigger.3D....
Rampage.Big.Meets.Bigger.3D....
Rampage.Big.Meets.Bigger.3D....
Winter.Games.3D.2013.DUAL.CO...
Tomb.Raider.3D.2018.German.7...
Rampage.Big.Meets.Bigger.3D....
Rampage.Big.Meets.Bigger.3D....
Tomb.Raider.3D.2018.MULTi.CO...
Pacific.Rim.Uprising.3D.2018...
Ready.Player.One.3D.2018.Ger...
Rampage.-.Big.Meets.Bigger.2...
Ready.Player.One.2018.3D.HOU...
Ready.Player.One.2018.3D.HSB...
Ready.Player.One.3D.2018.MUL...

Old_Stuff
Dracula.The.Dark.Lord.2012.G...
21.2008.German.DL.1080p.BluR...
Achtung.fertig.WK.Swissgerma...
The.Ouija.Exorcism.2015.MULT...
Meine.liebe.Rabenmutter.germ...
Da.Vincis.Demons.S01.Complet...
Eragon.Das.Vermaechtnis.der....
Adele.und.das.Geheimnis.des....
Die.fabelhafte.Welt.der.Amel...
Haus.des.Geldes.S01.German.M...
How.I.Met.Your.Mother.S01.Ge...
The.Dark.Knight.Rises.2012.M...
Weissensee.S03.2015.GERMAN.C...
Weissensee.S01+S02.2010.GERM...
Die.Unglaublichen.-.The.Incr...

Filme
Paradise.PD.S01.COMPLETE.Ger...
Hot.Tub.Der.Whirlpool.ist.ne...
Lawless.2013.German.DL.AC3.1...
Vergiss.mein.nicht.2004.Germ...
Saturday.Night.Fever.Directo...
Like.Father.Like.Son.2013.Ge...
Paradise.PD.S01.COMPLETE.Ger...
Tom.Clancys.Jack.Ryan.S01.CO...
Formel.1.Saison.2018.GERMAN....
Tom.Clancys.Jack.Ryan.S01.CO...
The.Day.After.1983.German.DL...
Die.Maechte.des.Wahnsinns.RE...
Darkman.III.Das.Experiment.1...
Mr.Mercedes.S02.German.DD+51...
Mr.Mercedes.S02.German.DD+51...
Mit.der.Waffe.in.der.Hand.19...
Der.bunte.Schleier.2006.Germ...
Push.OPEN.MATTE.2009.German....
Avengers.Age.of.Ultron.2015....
Wir.sind.die.Nacht.2010.Germ...
Real.Steel.OPEN.MATTE.2011.G...
Darkman.1990.Uncut.German.AC...
La.vie.en.rose.2007.BDRip.10...
Narcos.S03D01-3.MULTi.COMPLE...

 
 
Game.of.Thrones.S07.COMPLETE.German.DD+51.DL.720p.AmazonHD.x264-TVS

Jahr: 2017
Genre: Abenteuer | Drama | Fantasy
Sprache: Deutsch AC3 5.1 | Englisch AC§ 5.1
Laufzeit: 58min je Folge
Bitrate: 3000 Kbps
Format: MKV
Größe: 1,8 GB je Folge
Release:

Beschreibung:

In „Game of Thrones“ geht es um den epischen Streit zweier Dynastien und die von ihnen beherrschten sieben Königreiche auf dem Kontinent Westeros um den sogenannten Eisernen Thron, dessen Kontrolle allein das überleben im kommenden Winter sichern kann - ein Winter, der wie alle „Jahreszeiten“ auf Westeros mehrere Jahrzehnte andauern wird.

„Game of Thrones“ ist die Umsetzung der Fantasy-Buch-Reihe „A Song of Ice and Fire“ von George R.R. Martin. Genauer gesagt ist die erste Staffel der Serie die Umsetzung des ersten von bisher vier erschienenen Romanen. Drei weitere Romane sollen nach derzeitigem Stand noch erscheinen.

 

Unterschied zu TVP-Release: deutsch/englisch 5.1-Ton, deutsche und englische Untertitel – verfügbar am Dienstag

 

enthaltene Folgen (Staffel komplett):

Game.of.Thrones.S07E01.Drachenstein.German.DD+51.DL.720p.AmazonHD.x264-TVS

Game.of.Thrones.S07E02.Sturmtochter.German.DD+51.DL.720p.AmazonHD.x264-TVS

Game.of.Thrones.S07E03.Die.Gerechtigkeit.der.Koenigin.German.DD+51.DL.720p.AmazonHD.x264-TVS

Game.of.Thrones.S07E04.Kriegsbeute.German.DD+51.DL.720p.AmazonHD.x264-TVS

Game.of.Thrones.S07E05.Ostwacht.German.DD+51.DL.720p.AmazonHD.x264-TVS

Game.of.Thrones.S07E06.Jenseits.der.Mauer.German.DD+51.DL.720p.AmazonHD.x264-TVS

Game.of.Thrones.S07E07.Der.Drache.und.der.Wolf.German.DD+51.DL.720p.AmazonHD.x264-TVS NEU



General
Complete name                            : Game.of.Thrones.S07E01.Drachenstein.German.DD+51.DL.720p.AmazonHD.x264-TVS\tvs-got-dd51-dl-7p-azhd-x264-701.mkv
Format                                   : Matroska
Format version                           : Version 4 / Version 2
File size                                : 1.80 GiB
Duration                                 : 58mn 44s
Overall bit rate                         : 4 397 Kbps
Encoded date                             : UTC 2017-07-18 00:58:28
Writing application                      : mkvmerge v13.0.0 ('The Juggler') 64bit
Writing library                          : libebml v1.3.4 + libmatroska v1.4.5
DURATION                                 : 00:57:24.842000000
NUMBER_OF_FRAMES                         : 703
NUMBER_OF_BYTES                          : 23530
_STATISTICS_WRITING_APP                  : mkvmerge v13.0.0 ('The Juggler') 64bit
_STATISTICS_WRITING_DATE_UTC             : 2017-07-18 00:58:28
_STATISTICS_TAGS                         : BPS DURATION NUMBER_OF_FRAMES NUMBER_OF_BYTES

Video
ID                                       : 1
Format                                   : AVC
Format/Info                              : Advanced Video Codec
Format profile                           : High@L4.1
Format settings, CABAC                   : Yes
Format settings, ReFrames                : 9 frames
Codec ID                                 : V_MPEG4/ISO/AVC
Duration                                 : 58mn 44s
Bit rate                                 : 3 030 Kbps
Width                                    : 1 280 pixels
Height                                   : 720 pixels
Display aspect ratio                     : 16:9
Frame rate mode                          : Constant
Frame rate                               : 23.976 fps
Color space                              : YUV
Chroma subsampling                       : 4:2:0
Bit depth                                : 8 bits
Scan type                                : Progressive
Bits/(Pixel*Frame)                       : 0.137
Stream size                              : 1.24 GiB (69%)
Writing library                          : x264 core 152 r2851 ba24899
Encoding settings                        : cabac=1 / ref=9 / deblock=1:-1:-1 / analyse=0x3:0x133 / me=umh / subme=10 / psy=1 / psy_rd=1.05:0.00 / mixed_ref=1 / me_range=24 / chroma_me=1 / trellis=2 / 8x8dct=1 / cqm=0 / deadzone=21,11 / fast_pskip=1 / chroma_qp_offset=-2 / threads=22 / lookahead_threads=3 / sliced_threads=0 / nr=0 / decimate=1 / interlaced=0 / bluray_compat=0 / constrained_intra=0 / bframes=8 / b_pyramid=2 / b_adapt=2 / b_bias=0 / direct=3 / weightb=1 / open_gop=0 / weightp=2 / keyint=250 / keyint_min=23 / scenecut=40 / intra_refresh=0 / rc_lookahead=60 / rc=crf / mbtree=1 / crf=15.5 / qcomp=0.60 / qpmin=0 / qpmax=69 / qpstep=4 / ip_ratio=1.40 / aq=2:0.90
Default                                  : Yes
Forced                                   : No
Color primaries                          : BT.709
Transfer characteristics                 : BT.709
Matrix coefficients                      : BT.709

Audio #1
ID                                       : 2
Format                                   : E-AC-3
Format/Info                              : Audio Coding 3
Format settings, Endianness              : Big
Codec ID                                 : A_EAC3
Duration                                 : 58mn 44s
Bit rate mode                            : Constant
Bit rate                                 : 640 Kbps
Channel(s)                               : 6 channels
Channel positions                        : Front: L C R, Side: L R, LFE
Sampling rate                            : 48.0 KHz
Compression mode                         : Lossy
Stream size                              : 269 MiB (15%)
Language                                 : German
Default                                  : Yes
Forced                                   : No

Audio #2
ID                                       : 3
Format                                   : E-AC-3
Format/Info                              : Audio Coding 3
Format settings, Endianness              : Big
Codec ID                                 : A_EAC3
Duration                                 : 58mn 44s
Bit rate mode                            : Constant
Bit rate                                 : 640 Kbps
Channel(s)                               : 6 channels
Channel positions                        : Front: L C R, Side: L R, LFE
Sampling rate                            : 48.0 KHz
Compression mode                         : Lossy
Stream size                              : 269 MiB (15%)
Language                                 : English
Default                                  : No
Forced                                   : No

Text #1
ID                                       : 4
Format                                   : UTF-8
Codec ID                                 : S_TEXT/UTF8
Codec ID/Info                            : UTF-8 Plain Text
Title                                    : Forced
Language                                 : German
Default                                  : Yes
Forced                                   : Yes

Text #2
ID                                       : 5
Format                                   : UTF-8
Codec ID                                 : S_TEXT/UTF8
Codec ID/Info                            : UTF-8 Plain Text
Language                                 : German
Default                                  : No
Forced                                   : No

Text #3
ID                                       : 6
Format                                   : UTF-8
Codec ID                                 : S_TEXT/UTF8
Codec ID/Info                            : UTF-8 Plain Text
Language                                 : English
Default                                  : No
Forced                                   : No



Download:
Share-Online.biz Share-Online.bizShare-Online.bizShare-Online.biz | Rapidgator.net Rapidgator.netRapidgator.netRapidgator.net
 

Kommentare

  1. Geschrieben am 17. August 2017, 20:16 Uhr von BSnake · #

    Folge 5 ist hier in 1080p drin.

    / ???? du bist in 720p.
  2. Geschrieben am 23. August 2017, 23:11 Uhr von ich · #

    episode 6 hat ne ton pause kurz vor der 7. minute … ist das nur bei mir so ?
    ansonster wie immer super release !

  3. Geschrieben am 3. September 2017, 19:46 Uhr von Eddy · #

    @ich ist nur bei dir so, hier alles gut.