DNS SERVER ÄNDERN, um der staatlichen Zensur zu umgehen. Sollten wir von eurem Provider gesperrt werden, nutzt den TOR BROWSER oder ändert euren DNS SERVER.

Filmwünsche können bei uns im Forum abgegeben werden

Wir Speichern Nicht




 
 
 
Top Releases
Book.Club.Das.Beste.kommt.no...
Book.Club.Das.Beste.kommt.no...
The.Unthinkable.2018.MULTi.C...
Dogman.2018.German.AC3.Dubbe...
Dogman.2018.German.AC3.Dubbe...
The.Unthinkable.Die.unbekann...
Das.Haus.der.geheimnisvollen...
Das.Haus.der.geheimnisvollen...
Leave.No.Trace.2018.German.D...
Leave.No.Trace.2018.German.D...

Cinedubs
Dont.Worry.weglaufen.geht.ni...
Dont.Worry.weglaufen.geht.ni...
Gaensehaut.2.Gruseliges.Hall...
Aquaman.TS.LD.German.DL.720p...
Eho.Echo.German.720p.WEBRip....
Eho.Echo.German.1080p.WEBRip...
Bad.Times.at.the.El.Royale.2...
Bad.Spies.2018.German.DL.AC3...
Aquaman.2018.GERMAN.AC3.MD.7...
Bad.Spies.German.DL.AC3.Dubb...

Neuerscheinungen 2018-19
Grosse.Haie.Kleine.Fische.20...
Keepers.Die.Leuchtturmwaerte...
Keepers.Die.Leuchtturmwaerte...
The.Highway.Rat.2017.German....
Joseph.Koenig.der.Traeume.20...
Joseph.Koenig.der.Traeume.20...
Ab.durch.die.Hecke.2006.Germ...
Ab.durch.die.Hecke.2006.Germ...
Raeuber.Ratte.2017.COMPLETE....
Same.Same.But.Different.2009...

XXX
HentaiPros.Only.You.3.JAPANE...
FakeHostel.19.01.12.Melody.P...
Aziani.19.01.06.Barbie.Sins....
Cosmid.19.01.09.Eva.Ditov.Ti...
MilfsLikeItBig.19.01.10.Chan...
Nubiles.19.01.09.Terry.Bliss...
MomIsHorny.19.01.12.Julianna...
GirlsWay.19.01.13.Angela.Whi...
BuccWild.18.04.21.Creamy.Pus...
WildOnCam.18.12.25.Bridgette...
TransAngels.18.10.13.Natassi...
X-Art.18.12.27.Nella.And.Nik...
SugarDaddyPORN.18.12.24.Sofi...
ZeroTolerance.18.12.25.Miche...
WankItNow.18.12.27.Kayla.Lou...
VickyAtHome.18.12.22.All.I.W...
TransAngels.18.11.29.Katrina...
TransAngels.18.10.06.Miran.I...
SlutStepSister.18.12.25.Jenn...
WetAndPuffy.18.12.26.Kate.Fr...

3D
Blade.Runner.2049.3D.2017.Ge...
Walhalla.Rising.3D.2009.DUAL...
Sleepwalker.3D.2011.DUAL.COM...
Bis.an.die.Grenzen.des.Unive...
Best.of.3D.vol.13.-.15.GERMA...
Limbradur.und.die.Magie.der....
Kaluoka.Hina.Das.Zauberriff....
Limbradur.und.die.Magie.der....
Smallfoot.3D.2018.COMPLETE.B...
Smallfoot.Ein.eisigartiges.A...
Skyscraper.3D.2018.German.DL...
Meg.3D.2018.MULTi.COMPLETE.B...
Meg.3D.2018.German.DL.1080p....
Gans.im.Glueck.3D.2018.MULTi...
The.Art.of.Flight.3D.2011.Ge...

Old_Stuff
Todfreunde.aka.Bad.Influence...
Animatrix.2003.German.DL.108...
Animatrix.2003.German.DL.720...
Akte.X.S06.German.DTS.DL.108...
The.Beauty.of.Gemina.Minor.S...
ZZ.Top.Live.from.Texas.2008....
Peter.Hase.2018.German.DL.10...
Akte.X.S05.German.DTS.DL.108...
Akte.X.S04.German.DTS.DL.108...
Akte.X.S03.German.DTS.DL.108...
Dunkirk.1958.COMPLETE.BLURAY...
Das.Wunder.von.Manhattan.199...
The.Amazing.Spiderman.2.Rise...
Rise.of.the.Predator.2014.Ge...
Detective.Dee.und.das.Geheim...

Filme
The.100.S05.GERMAN.DUBBED.72...
The.Grand.Tour.S03.German.DL...
The.Grand.Tour.S03.German.DL...
Ein.Wunder.S01.GERMAN.DL.AC3...
The.Gifted.S02.GERMAN.DL.108...
The.Gifted.S02.GERMAN.720p.H...
Grosse.Haie.Kleine.Fische.20...
Das.Haus.der.geheimnisvollen...
The.Highway.Rat.2017.German....
Joseph.Koenig.der.Traeume.20...
Der.Stellvertreter.2002.Germ...
Das.Haus.der.geheimnisvollen...
Vikings.S05.German.DD+51.DL....
Vikings.S05.German.DD+51.DL....
Riverdale.US.S03.GERMAN.DL.1...
Riverdale.US.S03.GERMAN.DL.7...
Orange.is.the.New.Black.S01-...
Killjoys.S04.GERMAN.DL.720p....
Killjoys.S04.GERMAN.DL.1080p...
iZombie.S04.German.DD51.Dubb...
iZombie.S04.German.DD51.Dubb...
Carter.S01.GERMAN.DL.1080p.H...
Carter.S01.GERMAN.DL.720p.HD...
9.1.1.S02.GERMAN.DL.1080p.HD...

 
 
The.Grand.Tour.S03.German.DL.DUBBED.1080p.WebHD.x264-AIDA

Jahr: 2019
Genre: Komödie | Reality-TV
Sprache: Deutsch AC3 | Englisch AC3
Laufzeit: 1h je Folge
Bitrate: 8000 Kbps
Format: MKV
Größe: 5 GB je Folge
Release:

Beschreibung:

 

Inoffizieller „Top Gear“-Nachfolger mit dem ehemaligen Team Jeremy Clarkson, Richard Hammond und James May beim Streamingdienst Amazon Prime. „The Grand Tour“ ist nicht nur Name, sondern auch Programm: Denn in ihrer neuen Sendung reist das Trio rund um die Welt. „Wir werden die Welt bereisen und jede Episode in einem anderen Land aufzeichnen – in einem riesigen Zelt. Wenn man so will, ist es so etwas wie eine große Reise. Deshalb haben wir beschlossen, die Show ‚The Grand Tour‘ zu nennen“, erklärt Jeremy Clarkson. Dabei werden nicht nur die aufgezeichneten Einspielfilme an unterschiedlichen Orten produziert, auch der Studioteil vor Live-Publikum wird jede Woche in einem großen Zelt an wechselnden Orten rund um den Globus aufgezeichnet.

 

enthaltene Folgen:


The.Grand.Tour.S03E01.German.DL.DUBBED.1080p.WebHD.x264-AIDA NEU

 



General
Complete name                            : The.Grand.Tour.S03E01.German.DL.DUBBED.1080p.WebHD.x264-AIDA\The.Grand.Tour.S03E01.German.DL.DUBBED.1080p.WebHD.x264-AIDA.mkv
Format                                   : Matroska
Format version                           : Version 4 / Version 2
File size                                : 4.59 GiB
Duration                                 : 1h 8mn
Overall bit rate                         : 9 517 Kbps
Encoded date                             : UTC 2019-01-18 00:28:06
Writing application                      : mkvmerge v20.0.0 ('I Am The Sun') 64-bit
Writing library                          : libebml v1.3.5 + libmatroska v1.4.8
DURATION                                 : 01:08:54.336000000
NUMBER_OF_FRAMES                         : 129198
NUMBER_OF_BYTES                          : 330746880
_STATISTICS_WRITING_APP                  : mkvmerge v20.0.0 ('I Am The Sun') 64-bit
_STATISTICS_WRITING_DATE_UTC             : 2019-01-18 00:28:06
_STATISTICS_TAGS                         : BPS DURATION NUMBER_OF_FRAMES NUMBER_OF_BYTES

Video
ID                                       : 1
Format                                   : AVC
Format/Info                              : Advanced Video Codec
Format profile                           : High@L4.0
Format settings, CABAC                   : Yes
Format settings, ReFrames                : 4 frames
Codec ID                                 : V_MPEG4/ISO/AVC
Duration                                 : 1h 8mn
Bit rate                                 : 8 047 Kbps
Width                                    : 1 920 pixels
Height                                   : 1 080 pixels
Display aspect ratio                     : 16:9
Frame rate mode                          : Constant
Frame rate                               : 25.000 fps
Color space                              : YUV
Chroma subsampling                       : 4:2:0
Bit depth                                : 8 bits
Scan type                                : Progressive
Bits/(Pixel*Frame)                       : 0.155
Stream size                              : 3.88 GiB (85%)
Default                                  : Yes
Forced                                   : No
Color primaries                          : BT.709
Transfer characteristics                 : BT.709
Matrix coefficients                      : BT.709

Audio #1
ID                                       : 2
Format                                   : AC-3
Format/Info                              : Audio Coding 3
Mode extension                           : CM (complete main)
Format settings, Endianness              : Big
Codec ID                                 : A_AC3
Duration                                 : 1h 8mn
Bit rate mode                            : Constant
Bit rate                                 : 640 Kbps
Channel(s)                               : 6 channels
Channel positions                        : Front: L C R, Side: L R, LFE
Sampling rate                            : 48.0 KHz
Bit depth                                : 16 bits
Compression mode                         : Lossy
Stream size                              : 316 MiB (7%)
Language                                 : German
Default                                  : Yes
Forced                                   : No

Audio #2
ID                                       : 3
Format                                   : AC-3
Format/Info                              : Audio Coding 3
Mode extension                           : CM (complete main)
Format settings, Endianness              : Big
Codec ID                                 : A_AC3
Duration                                 : 1h 8mn
Bit rate mode                            : Constant
Bit rate                                 : 640 Kbps
Channel(s)                               : 6 channels
Channel positions                        : Front: L C R, Side: L R, LFE
Sampling rate                            : 48.0 KHz
Bit depth                                : 16 bits
Compression mode                         : Lossy
Stream size                              : 316 MiB (7%)
Language                                 : English
Default                                  : No
Forced                                   : No



Download:
Share-Online.biz Share-Online.bizShare-Online.bizShare-Online.biz
 

Kommentare