DNS SERVER ÄNDERN, um der staatlichen Zensur zu entgehen. Sollten wir von eurem Provider gesperrt werden, nutzt den TOR BROWSER oder ändert euren DNS SERVER.

Filmwünsche können bei uns im Forum abgegeben werden

Wir Speichern Nicht




 
 
 
Top Releases
Gundermann.2018.GERMAN.COMPL...
Western.2017.German.1080p.Bl...
Western.2017.German.720p.Blu...
303.German.1080p.BluRay.x264...
303.2018.GERMAN.COMPLETE.BLU...
303.German.720p.BluRay.x264-...
Mile.22.2018.MULTI.COMPLETE....
Dog.Days.2018.MULTI.COMPLETE...
Mile.22.2018.German.DL.1080p...
Mile.22.2018.German.720p.Blu...

Cinedubs
Aquaman.2018.German.DL.AC3.D...
Aquaman.2018.German.DL.AC3.D...
Siberia.2018.German.AC3D.WEB...
Siberia.2018.German.AC3D.WEB...
Climax.2018.German.DL.AC3.10...
Climax.2018.German.DL.AC3.72...
Mortal.Engines.Krieg.der.Sta...
Mortal.Engines.Krieg.der.Sta...
Der.Grinch.2018.German.DL.AC...
Der.Grinch.2018.German.DL.AC...

Neuerscheinungen 2018-19
Weisse.Jungs.Bringens.Nicht....
Weisse.Jungs.Bringens.Nicht....
Ueberfall.auf.die.Queen.Mary...
Breaking.In.2018.MULTi.COMPL...
Weisse.Jungs.Bringens.Nicht....
Der.Schrecken.schleicht.durc...
Air.Strike.2018.German.DL.10...
Air.Strike.2018.German.720p....
Elmer.Brain.Damage.1988.MULT...
Brokedown.Palace.1999.MULTi....

XXX
Booty.Jackin.6.2017.XXX.1080...
ErotiqueTVLive.18.05.04.Audr...
ErotiqueTVLive.18.05.11.Viol...
ErotiqueTVLive.18.05.19.Kate...
FirstAnalQuest.19.01.01.Deni...
Made.to.Tit.Fuck.2013.XXX.10...
Milfs.Like.It.Rough.2014.XXX...
NinaKayy.18.01.18.Hot.Tub.Fu...
NinaKayy.18.01.30.Taking.A.R...
Public.Anal.Amateurs.Spread....
Tushy.19.01.01.Brett.Rossi.X...
X-Sensual.18.12.16.Marselina...
Accidentally.Lesbian.4.2017....
Cute.And.Tight.Holes.2016.XX...
Her.Sweet.Asshole.Gets.Re.si...
Hot.Wife.Stories.2017.XXX.10...
The.House.Of.Sin.2014.XXX.72...
Trouble.X.2.2016.XXX.720p.HD...
Value.10.Real.Massive.Racks....
White.18.Yo.Mistresses.For.B...

3D
Die.Reise.zum.Mittelpunkt.de...
Die.Reise.zum.Mittelpunkt.de...
Die.Reise.zum.Mittelpunkt.de...
Kaluoka.Hina.Das.Zauberriff....
Blade.Runner.2049.3D.2017.Ge...
Walhalla.Rising.3D.2009.DUAL...
Sleepwalker.3D.2011.DUAL.COM...
Bis.an.die.Grenzen.des.Unive...
Best.of.3D.vol.13.-.15.GERMA...
Limbradur.und.die.Magie.der....
Kaluoka.Hina.Das.Zauberriff....
Limbradur.und.die.Magie.der....
Smallfoot.3D.2018.COMPLETE.B...
Smallfoot.Ein.eisigartiges.A...
Skyscraper.3D.2018.German.DL...

Old_Stuff
Ip.Man.2.2010.German.DTS.108...
Todfreunde.aka.Bad.Influence...
Animatrix.2003.German.DL.108...
Animatrix.2003.German.DL.720...
Akte.X.S06.German.DTS.DL.108...
The.Beauty.of.Gemina.Minor.S...
ZZ.Top.Live.from.Texas.2008....
Peter.Hase.2018.German.DL.10...
Akte.X.S05.German.DTS.DL.108...
Akte.X.S04.German.DTS.DL.108...
Akte.X.S03.German.DTS.DL.108...
Dunkirk.1958.COMPLETE.BLURAY...
Das.Wunder.von.Manhattan.199...
The.Amazing.Spiderman.2.Rise...
Rise.of.the.Predator.2014.Ge...

Filme
303.2018.GERMAN.1080p.BluRay...
Marvels.The.Punisher.S02.COM...
Keepers.Die.Leuchtturmwaerte...
Freundinnen.1988.German.AC3D...
Critters.1986.German.AC3D.DL...
Office.Killer.1997.UNCUT.Ger...
Traenen.der.Sonne.2003.DIREC...
Technikgeschichten.S01.GERMA...
Musikalisch.Kulinarisch.Moza...
Superfly.2018.German.DL.1080...
Der.Untergang.2004.GERMAN.CO...
Milk.and.Honey.S01D01-2.GERM...
Elmer.Brain.Damage.1988.Germ...
Room.104.S02.German.DD51.DL....
Room.104.S02.German.DD51.DL....
Killjoys.S04.GERMAN.DL.1080p...
Killjoys.S04.GERMAN.DL.720p....
9.1.1.S02.GERMAN.DL.1080p.HD...
9.1.1.S02.GERMAN.DL.720p.HDT...
Dog.Days.2018.German.DL.1080...
Muellers.Buero.1986.German.1...
Muellers.Buero.1986.German.7...
Der.Untergang.2004.German.10...
Kindeswohl.2018.German.DL.10...

 
 
Marvels.The.Punisher.S02.COMPLETE.German.DL.1080p.WEB.HDR.HEVC-jUNiP

Jahr: 2019
Genre: Action | Drama
Sprache: Deutsch EAC3 | Englisch EAC3
Laufzeit: 53min je Folge
Bitrate: 5500 Kbps
Format: MKV
Größe: 2,5 GB je Folge
Release:

Beschreibung:

Frank Castle (Jon Bernthal) ist Veteran der US-Streitkräfte. Als er aus dem Einsatz zurückkehrt gerät seine gesamte Familie in einen Schusswechsel mehrerer rivalisierender Banden - nur Frank überlebt. Mit einem gewaltigen Waffenarsenal, generalstabsmäßiger Planung und tödlicher Gewalt zieht er in einen Feldzug gegen das organisierte Verbrechen.



General
Complete name                            : Marvels.The.Punisher.S02E01.German.DL.1080p.WEB.HDR.HEVC-jUNiP\junip-punisher.s02e01-1080-hdr.mkv
Format                                   : Matroska
Format version                           : Version 4 / Version 2
File size                                : 2.52 GiB
Duration                                 : 53mn 9s
Overall bit rate                         : 6 779 Kbps
Encoded date                             : UTC 2019-01-18 20:02:20
Writing application                      : mkvmerge v28.2.0 ('The Awakening') 64-bit
Writing library                          : libebml v1.3.6 + libmatroska v1.4.9
DURATION                                 : 00:50:46.168000000
NUMBER_OF_FRAMES                         : 5
NUMBER_OF_BYTES                          : 115
_STATISTICS_WRITING_APP                  : mkvmerge v28.2.0 ('The Awakening') 64-bit
_STATISTICS_WRITING_DATE_UTC             : 2019-01-18 20:02:20
_STATISTICS_TAGS                         : BPS DURATION NUMBER_OF_FRAMES NUMBER_OF_BYTES

Video
ID                                       : 1
Format                                   : HEVC
Format/Info                              : High Efficiency Video Coding
Codec ID                                 : V_MPEGH/ISO/HEVC
Duration                                 : 53mn 9s
Bit rate                                 : 5 557 Kbps
Width                                    : 1 920 pixels
Height                                   : 1 080 pixels
Display aspect ratio                     : 16:9
Frame rate mode                          : Constant
Frame rate                               : 23.976 fps
Bits/(Pixel*Frame)                       : 0.112
Stream size                              : 2.06 GiB (82%)
Language                                 : English
Default                                  : Yes
Forced                                   : No
DURATION                                 : 00:53:09.920000000
NUMBER_OF_FRAMES                         : 99685
NUMBER_OF_BYTES                          : 255193600
_STATISTICS_WRITING_APP                  : mkvmerge v28.2.0 ('The Awakening') 64-bit
_STATISTICS_WRITING_DATE_UTC             : 2019-01-18 20:02:20
_STATISTICS_TAGS                         : BPS DURATION NUMBER_OF_FRAMES NUMBER_OF_BYTES

Audio #1
ID                                       : 2
Format                                   : E-AC-3
Format/Info                              : Audio Coding 3
Format settings, Endianness              : Big
Codec ID                                 : A_EAC3
Duration                                 : 53mn 9s
Bit rate mode                            : Constant
Bit rate                                 : 640 Kbps
Channel(s)                               : 6 channels
Channel positions                        : Front: L C R, Side: L R, LFE
Sampling rate                            : 48.0 KHz
Compression mode                         : Lossy
Stream size                              : 243 MiB (9%)
Language                                 : German
Default                                  : Yes
Forced                                   : No

Audio #2
ID                                       : 3
Format                                   : E-AC-3
Format/Info                              : Audio Coding 3
Format settings, Endianness              : Big
Codec ID                                 : A_EAC3
Duration                                 : 53mn 9s
Bit rate mode                            : Constant
Bit rate                                 : 448 Kbps
Channel(s)                               : 6 channels
Channel positions                        : Front: L C R, Side: L R, LFE
Sampling rate                            : 48.0 KHz
Compression mode                         : Lossy
Stream size                              : 170 MiB (7%)
Language                                 : English
Default                                  : No
Forced                                   : No

Text #1
ID                                       : 4
Format                                   : UTF-8
Codec ID                                 : S_TEXT/UTF8
Codec ID/Info                            : UTF-8 Plain Text
Title                                    : German
Language                                 : German
Default                                  : No
Forced                                   : No

Text #2
ID                                       : 5
Format                                   : UTF-8
Codec ID                                 : S_TEXT/UTF8
Codec ID/Info                            : UTF-8 Plain Text
Title                                    : German (Forced)
Language                                 : German
Default                                  : Yes
Forced                                   : Yes

Text #3
ID                                       : 6
Format                                   : UTF-8
Codec ID                                 : S_TEXT/UTF8
Codec ID/Info                            : UTF-8 Plain Text
Title                                    : English
Language                                 : English
Default                                  : No
Forced                                   : No



Download:
Share-Online.biz Share-Online.bizShare-Online.bizShare-Online.biz | Rapidgator.net Rapidgator.netRapidgator.netRapidgator.net
 

Kommentare