DNS SERVER ÄNDERN, um der staatlichen Zensur zu entgehen. Sollten wir von eurem Provider gesperrt werden, nutzt den TOR BROWSER oder ändert euren DNS SERVER.

Filmwünsche können bei uns im Forum abgegeben werden

Wir Speichern Nicht




 
 
 
Top Releases
The.Unthinkable.Die.unbekann...
Polar.2019.German.DL.1080p.W...
Bachelors.Der.Weg.zurueck.in...
Bachelors.Der.Weg.zurueck.in...
Bachelors.Der.Weg.zurueck.in...
Die.Unglaublichen.2.2018.MUL...
Gundermann.2018.GERMAN.COMPL...
Western.2017.German.1080p.Bl...
Western.2017.German.720p.Blu...
303.German.1080p.BluRay.x264...

Cinedubs
Der.Grinch.2018.German.AC3LD...
Der.Grinch.2018.German.AC3LD...
Aquaman.2018.German.DL.AC3.D...
Aquaman.2018.German.DL.AC3.D...
Siberia.2018.German.AC3D.WEB...
Siberia.2018.German.AC3D.WEB...
Climax.2018.German.DL.AC3.10...
Climax.2018.German.DL.AC3.72...
Mortal.Engines.Krieg.der.Sta...
Mortal.Engines.Krieg.der.Sta...

Neuerscheinungen 2018-19
In.einem.Jahr.mit.13.Monden....
Animas.2018.German.1080p.WEB...
Animas.2018.German.720p.WEBR...
Gundermann.2018.GERMAN.1080p...
Air.Strike.2018.German.DL.10...
House.of.Purgatory.2016.GERM...
Air.Strike.2018.German.DTS.D...
The.Libertine.2004.MULTi.COM...
Cesar.et.Rosalie.1972.MULTi....
Air.Strike.2018.MULTI.COMPLE...

XXX
OyeLoca.19.01.13.Anainda.Has...
PornMegaLoad.19.01.11.Diamon...
MonstersOfCock.19.01.13.Anal...
MomPov.E447.Tracie.XXX.1080p...
Private.Best.Of.Erika.Belluc...
BangBus.19.01.09.Kayla.Paris...
ClubSeventeen.19.01.09.Jessy...
BuccWild.18.04.26.Ebony.Ride...
RodneyMoore.19.01.11.Kristy....
JeshByJesh.19.01.10.Isabelle...
OralOverdose.19.01.10.Fallon...
ConorCoxxx.19.01.11.Stephani...
Hitzefrei.19.01.11.Anissa.Ka...
CzechCasting.19.01.10.Patric...
ErotiqueTVLive.18.08.23.Fall...
BuccWild.18.04.16.Kristy.Ama...
PlumperPass.19.01.09.Betty.B...
ErotiqueTVLive.18.08.18.Kyli...
MomPov.E433.Harley.XXX.1080p...
WankItNow.19.01.12.Tindra.Fr...

3D
Die.Reise.zum.Mittelpunkt.de...
Die.Reise.zum.Mittelpunkt.de...
Die.Reise.zum.Mittelpunkt.de...
Kaluoka.Hina.Das.Zauberriff....
Blade.Runner.2049.3D.2017.Ge...
Walhalla.Rising.3D.2009.DUAL...
Sleepwalker.3D.2011.DUAL.COM...
Bis.an.die.Grenzen.des.Unive...
Best.of.3D.vol.13.-.15.GERMA...
Limbradur.und.die.Magie.der....
Kaluoka.Hina.Das.Zauberriff....
Limbradur.und.die.Magie.der....
Smallfoot.3D.2018.COMPLETE.B...
Smallfoot.Ein.eisigartiges.A...
Skyscraper.3D.2018.German.DL...

Old_Stuff
Ip.Man.2.2010.German.DTS.108...
Todfreunde.aka.Bad.Influence...
Animatrix.2003.German.DL.108...
Animatrix.2003.German.DL.720...
Akte.X.S06.German.DTS.DL.108...
The.Beauty.of.Gemina.Minor.S...
ZZ.Top.Live.from.Texas.2008....
Peter.Hase.2018.German.DL.10...
Akte.X.S05.German.DTS.DL.108...
Akte.X.S04.German.DTS.DL.108...
Akte.X.S03.German.DTS.DL.108...
Dunkirk.1958.COMPLETE.BLURAY...
Das.Wunder.von.Manhattan.199...
The.Amazing.Spiderman.2.Rise...
Rise.of.the.Predator.2014.Ge...

Filme
Antarctica.-.Gefangen.im.Eis...
187.Eine.toedliche.Zahl.1997...
Haus.der.Todsuenden.UNCUT.19...
Sugarland.Express.1974.Germa...
Kopfgeld.1996.German.DL.1080...
Oblivion.2013.German.DTS.DL....
Phantastische.Tierwesen.und....
Goodbye.Lover.1998.German.10...
Helden.aus.der.zweiten.Reihe...
Z.Nation.S04D01-4.MULTi.COMP...
Der.rasende.Gockel.1983.Germ...
Der.rasende.Gockel.1983.Germ...
Luetzower.1972.German.1080p....
Luetzower.1972.German.720p.W...
Ein.Goldfisch.an.der.Leine.1...
Ein.Goldfisch.an.der.Leine.1...
Ein.Single.kommt.selten.alle...
Star.Trek.Discovery.S02.Germ...
Star.Trek.Discovery.S02.Germ...
Die.Conners.S01.German.DD51....
Die.Conners.S01.German.DD51....
Ein.Single.kommt.selten.alle...
Wolz.Leben.und.Verklaerung.e...
Weisse.Jungs.Bringens.Nicht....

 
 
The.Unthinkable.Die.unbekannte.Macht.2018.German.AC3.DL.1080p.BluRay.x265-FuN

Jahr: 2018
Genre: Action, Drama
Sprache: Deutsch AC3
Laufzeit: 2h 9mn
Bitrate: 1 643 Kbps
Format: MKV
Größe: 1.48 GiB
Release:

Beschreibung:

Sprengsätze explodieren in Stockholm, es gibt Tote! Dann häufen sich mysteriöse Vorfälle, Menschen drehen durch. Es wirkt wie ein systematischer Angriff, aber durch wen? Selbst die Armee ist ratlos. Innerhalb von Stunden versinkt das Land im Chaos. Der junge Musiker Alex ist vor Jahren vor dem jähzornigen Vater aus seinem Heimatdorf geflohen. Ausgerechnet jetzt ist er zurückgekehrt, um nach dem Klavier zu suchen, auf dem er oft zusammen mit seiner großen Liebe Anna gespielt hat. Unverhofft trifft er Anna wieder, doch es ist nicht die Zeit für romantische Erinnerungen. Es geht ums Überleben!




File size                                : 1.48 GiB
Duration                                 : 2h 9mn
Overall bit rate                         : 1 643 Kbps
Encoded date                             : UTC 2019-01-19 03:03:07
Writing application                      : mkvmerge v10.0.0 ('To Drown In You') 64bit
Writing library                          : libebml v1.3.4 + libmatroska v1.4.5
DURATION                                 : 01:47:09.452000000
NUMBER_OF_FRAMES                         : 16
NUMBER_OF_BYTES                          : 50329
_STATISTICS_WRITING_APP                  : mkvmerge v10.0.0 ('To Drown In You') 64bit
_STATISTICS_WRITING_DATE_UTC             : 2019-01-19 03:03:07
_STATISTICS_TAGS                         : BPS DURATION NUMBER_OF_FRAMES NUMBER_OF_BYTES

Video
ID                                       : 1
Format                                   : HEVC
Format/Info                              : High Efficiency Video Coding
Format profile                           : Main@L4.0
Codec ID                                 : V_MPEGH/ISO/HEVC
Duration                                 : 2h 9mn
Bit rate                                 : 843 Kbps
Width                                    : 1 920 pixels
Height                                   : 804 pixels
Display aspect ratio                     : 2.40:1
Frame rate mode                          : Constant
Frame rate                               : 24.000 fps
Color space                              : YUV
Chroma subsampling                       : 4:2:0
Bit depth                                : 8 bits
Bits/(Pixel*Frame)                       : 0.023
Stream size                              : 779 MiB (51%)
Writing library                          : x265 2.9:[Windows][GCC 7.1.0][64 bit] 8bit+10bit+12bit
Encoding settings                        : cpuid=1111039 / frame-threads=3 / numa-pools=8 / wpp / no-pmode / no-pme / psnr / no-ssim / log-level=2 / input-csp=1 / input-res=1920x804 / interlace=0 / total-frames=0 / level-idc=0 / high-tier=1 / uhd-bd=0 / ref=3 / no-allow-non-conformance / no-repeat-headers / annexb / no-aud / no-hrd / info / hash=0 / no-temporal-layers / open-gop / min-keyint=24 / keyint=240 / gop-lookahead=0 / bframes=4 / b-adapt=2 / b-pyramid / bframe-bias=0 / rc-lookahead=20 / lookahead-slices=5 / scenecut=40 / radl=0 / no-intra-refresh / ctu=64 / min-cu-size=8 / no-rect / no-amp / max-tu-size=32 / tu-inter-depth=1 / tu-intra-depth=1 / limit-tu=0 / rdoq-level=0 / dynamic-rd=0.00 / no-ssim-rd / signhide / no-tskip / nr-intra=0 / nr-inter=0 / no-constrained-intra / no-strong-intra-smoothing / max-merge=2 / limit-refs=3 / no-limit-modes / me=1 / subme=2 / merange=57 / temporal-mvp / weightp / no-weightb / no-analyze-src-pics / deblock=0:0 / no-sao / no-sao-non-deblock / rd=3 / no-early-skip / rskip / no-fast-intra / no-tskip-fast / no-cu-lossless / no-b-intra / no-splitrd-skip / rdpenalty=0 / psy-rd=0.00 / psy-rdoq=0.00 / no-rd-refine / no-lossless / cbqpoffs=0 / crqpoffs=0 / rc=crf / crf=23.0 / qcomp=0.60 / qpstep=4 / stats-write=0 / stats-read=0 / ipratio=1.40 / pbratio=1.30 / aq-mode=1 / aq-strength=0.00 / cutree / zone-count=0 / no-strict-cbr / qg-size=32 / no-rc-grain / qpmax=69 / qpmin=0 / no-const-vbv / sar=1 / overscan=0 / videoformat=5 / range=0 / colorprim=1 / transfer=1 / colormatrix=1 / chromaloc=0 / display-window=0 / max-cll=0,0 / min-luma=0 / max-luma=255 / log2-max-poc-lsb=8 / vui-timing-info / vui-hrd-info / slices=1 / no-opt-qp-pps / no-opt-ref-list-length-pps / no-multi-pass-opt-rps / scenecut-bias=0.05 / no-opt-cu-delta-qp / no-aq-motion / no-hdr / no-hdr-opt / no-dhdr10-opt / no-idr-recovery-sei / analysis-reuse-level=5 / scale-factor=0 / refine-intra=0 / refine-inter=0 / refine-mv=0 / no-limit-sao / ctu-info=0 / no-lowpass-dct / refine-mv-type=0 / copy-pic=1 / max-ausize-factor=1.0 / no-dynamic-refine / no-single-sei
Default                                  : Yes
Forced                                   : No
DURATION                                 : 02:09:16.125000000
NUMBER_OF_FRAMES                         : 186147
NUMBER_OF_BYTES                          : 843711018
_STATISTICS_WRITING_APP                  : mkvmerge v10.0.0 ('To Drown In You') 64bit
_STATISTICS_WRITING_DATE_UTC             : 2019-01-19 03:03:07
_STATISTICS_TAGS                         : BPS DURATION NUMBER_OF_FRAMES NUMBER_OF_BYTES

Audio #1
ID                                       : 2
Format                                   : AC-3
Format/Info                              : Audio Coding 3
Mode extension                           : CM (complete main)
Format settings, Endianness              : Big
Codec ID                                 : A_AC3
Duration                                 : 2h 9mn
Bit rate mode                            : Constant
Bit rate                                 : 384 Kbps
Channel(s)                               : 6 channels
Channel positions                        : Front: L C R, Side: L R, LFE
Sampling rate                            : 48.0 KHz
Bit depth                                : 16 bits
Compression mode                         : Lossy
Delay relative to video                  : -5ms
Stream size                              : 355 MiB (23%)
Title                                    : Surround
Language                                 : German
Default                                  : Yes
Forced                                   : No
DURATION                                 : 02:09:16.128000000
NUMBER_OF_FRAMES                         : 242379
NUMBER_OF_BYTES                          : 372294144
_STATISTICS_WRITING_APP                  : mkvmerge v10.0.0 ('To Drown In You') 64bit
_STATISTICS_WRITING_DATE_UTC             : 2019-01-19 03:03:07
_STATISTICS_TAGS                         : BPS DURATION NUMBER_OF_FRAMES NUMBER_OF_BYTES

Audio #2
ID                                       : 3
Format                                   : AC-3
Format/Info                              : Audio Coding 3
Mode extension                           : CM (complete main)
Format settings, Endianness              : Big
Codec ID                                 : A_AC3
Duration                                 : 2h 9mn
Bit rate mode                            : Constant
Bit rate                                 : 384 Kbps
Channel(s)                               : 6 channels
Channel positions                        : Front: L C R, Side: L R, LFE
Sampling rate                            : 48.0 KHz
Bit depth                                : 16 bits
Compression mode                         : Lossy
Delay relative to video                  : -5ms
Stream size                              : 355 MiB (23%)
Title                                    : Surround
Language                                 : Swedish
Default                                  : No
Forced                                   : No
DURATION                                 : 02:09:16.128000000
NUMBER_OF_FRAMES                         : 242379
NUMBER_OF_BYTES                          : 372294144
_STATISTICS_WRITING_APP                  : mkvmerge v10.0.0 ('To Drown In You') 64bit
_STATISTICS_WRITING_DATE_UTC             : 2019-01-19 03:03:07
_STATISTICS_TAGS                         : BPS DURATION NUMBER_OF_FRAMES NUMBER_OF_BYTES



Download:
Share Online Share OnlineShare OnlineShare Online
 

Kommentare