DNS SERVER ÄNDERN, um der staatlichen Zensur zu entgehen. Sollten wir von eurem Provider gesperrt werden, nutzt den TOR BROWSER oder ändert euren DNS SERVER.

Filmwünsche können bei uns im Forum abgegeben werden

Wir Speichern Nicht




 
 
 
Top Releases
The.Unthinkable.Die.unbekann...
Polar.2019.German.DL.1080p.W...
Bachelors.Der.Weg.zurueck.in...
Bachelors.Der.Weg.zurueck.in...
Bachelors.Der.Weg.zurueck.in...
Die.Unglaublichen.2.2018.MUL...
Gundermann.2018.GERMAN.COMPL...
Western.2017.German.1080p.Bl...
Western.2017.German.720p.Blu...
303.German.1080p.BluRay.x264...

Cinedubs
Der.Grinch.2018.German.AC3LD...
Der.Grinch.2018.German.AC3LD...
Aquaman.2018.German.DL.AC3.D...
Aquaman.2018.German.DL.AC3.D...
Siberia.2018.German.AC3D.WEB...
Siberia.2018.German.AC3D.WEB...
Climax.2018.German.DL.AC3.10...
Climax.2018.German.DL.AC3.72...
Mortal.Engines.Krieg.der.Sta...
Mortal.Engines.Krieg.der.Sta...

Neuerscheinungen 2018-19
In.einem.Jahr.mit.13.Monden....
Animas.2018.German.1080p.WEB...
Animas.2018.German.720p.WEBR...
Gundermann.2018.GERMAN.1080p...
Air.Strike.2018.German.DL.10...
House.of.Purgatory.2016.GERM...
Air.Strike.2018.German.DTS.D...
The.Libertine.2004.MULTi.COM...
Cesar.et.Rosalie.1972.MULTi....
Air.Strike.2018.MULTI.COMPLE...

XXX
OyeLoca.19.01.13.Anainda.Has...
PornMegaLoad.19.01.11.Diamon...
MonstersOfCock.19.01.13.Anal...
MomPov.E447.Tracie.XXX.1080p...
Private.Best.Of.Erika.Belluc...
BangBus.19.01.09.Kayla.Paris...
ClubSeventeen.19.01.09.Jessy...
BuccWild.18.04.26.Ebony.Ride...
RodneyMoore.19.01.11.Kristy....
JeshByJesh.19.01.10.Isabelle...
OralOverdose.19.01.10.Fallon...
ConorCoxxx.19.01.11.Stephani...
Hitzefrei.19.01.11.Anissa.Ka...
CzechCasting.19.01.10.Patric...
ErotiqueTVLive.18.08.23.Fall...
BuccWild.18.04.16.Kristy.Ama...
PlumperPass.19.01.09.Betty.B...
ErotiqueTVLive.18.08.18.Kyli...
MomPov.E433.Harley.XXX.1080p...
WankItNow.19.01.12.Tindra.Fr...

3D
Die.Reise.zum.Mittelpunkt.de...
Die.Reise.zum.Mittelpunkt.de...
Die.Reise.zum.Mittelpunkt.de...
Kaluoka.Hina.Das.Zauberriff....
Blade.Runner.2049.3D.2017.Ge...
Walhalla.Rising.3D.2009.DUAL...
Sleepwalker.3D.2011.DUAL.COM...
Bis.an.die.Grenzen.des.Unive...
Best.of.3D.vol.13.-.15.GERMA...
Limbradur.und.die.Magie.der....
Kaluoka.Hina.Das.Zauberriff....
Limbradur.und.die.Magie.der....
Smallfoot.3D.2018.COMPLETE.B...
Smallfoot.Ein.eisigartiges.A...
Skyscraper.3D.2018.German.DL...

Old_Stuff
Ip.Man.2.2010.German.DTS.108...
Todfreunde.aka.Bad.Influence...
Animatrix.2003.German.DL.108...
Animatrix.2003.German.DL.720...
Akte.X.S06.German.DTS.DL.108...
The.Beauty.of.Gemina.Minor.S...
ZZ.Top.Live.from.Texas.2008....
Peter.Hase.2018.German.DL.10...
Akte.X.S05.German.DTS.DL.108...
Akte.X.S04.German.DTS.DL.108...
Akte.X.S03.German.DTS.DL.108...
Dunkirk.1958.COMPLETE.BLURAY...
Das.Wunder.von.Manhattan.199...
The.Amazing.Spiderman.2.Rise...
Rise.of.the.Predator.2014.Ge...

Filme
Antarctica.-.Gefangen.im.Eis...
187.Eine.toedliche.Zahl.1997...
Haus.der.Todsuenden.UNCUT.19...
Sugarland.Express.1974.Germa...
Kopfgeld.1996.German.DL.1080...
Oblivion.2013.German.DTS.DL....
Phantastische.Tierwesen.und....
Goodbye.Lover.1998.German.10...
Helden.aus.der.zweiten.Reihe...
Z.Nation.S04D01-4.MULTi.COMP...
Der.rasende.Gockel.1983.Germ...
Der.rasende.Gockel.1983.Germ...
Luetzower.1972.German.1080p....
Luetzower.1972.German.720p.W...
Ein.Goldfisch.an.der.Leine.1...
Ein.Goldfisch.an.der.Leine.1...
Ein.Single.kommt.selten.alle...
Star.Trek.Discovery.S02.Germ...
Star.Trek.Discovery.S02.Germ...
Die.Conners.S01.German.DD51....
Die.Conners.S01.German.DD51....
Ein.Single.kommt.selten.alle...
Wolz.Leben.und.Verklaerung.e...
Weisse.Jungs.Bringens.Nicht....

 
 
Antarctica.-.Gefangen.im.Eis.2006.German.AC3.DL.1080p.BluRay.x265-FuN

Jahr: 2006
Genre: Abenteuer | Drama | Familie
Sprache: Deutsch AC3 | Englisch AC3
Laufzeit: 2h 0mn
Bitrate: 3 175 Kbps
Format: MKV
Größe: 2.67 GiB
Release:

Beschreibung:

Eine Reise bis ans Ende der Welt: Jerry Shepard, sein bester Freund Cooper und ein mit allen Wassern gewaschener Geologe finden sich zusammen, um in den vereisten Tiefen der Antarktis auf eine wissenschaftliche Expedition zu gehen. Nach einem Unfall gerät das Trio bei der sich dramatisch verschlechternden Wetterlage in eine lebensbedrohende Notlage. Die Männer sehen sich gezwungen, ihre geliebten Schneehunde in der endlosen Eiswüste zurückzulassen, um sich selbst retten zu können. Mitten im brutalen antarktischen Winter beginnt für die Hunde ein verzweifelter Überlebenskampf…

 




File size                                : 2.67 GiB
Duration                                 : 2h 0mn
Overall bit rate                         : 3 175 Kbps
Movie name                               : www.funxd.pw - deine Quelle fuer x265 Encodes ;)
Encoded date                             : UTC 2019-01-23 11:11:09
Writing application                      : mkvmerge v30.1.0 ('Forever And More') 64-bit
Writing library                          : libebml v1.3.6 + libmatroska v1.4.9
Attachements                             : Antarctica.Gefangen.im.Eis.2006.BluRay.1080p.AVC.DTS.DL.Remux-HDC.jpg
DURATION                                 : 01:51:36.431000000
NUMBER_OF_FRAMES                         : 947
NUMBER_OF_BYTES                          : 4317790
_STATISTICS_WRITING_APP                  : mkvmerge v30.1.0 ('Forever And More') 64-bit
_STATISTICS_WRITING_DATE_UTC             : 2019-01-23 11:11:09
_STATISTICS_TAGS                         : BPS DURATION NUMBER_OF_FRAMES NUMBER_OF_BYTES

Video
ID                                       : 1
Format                                   : HEVC
Format/Info                              : High Efficiency Video Coding
Format profile                           : Main@L4.0
Codec ID                                 : V_MPEGH/ISO/HEVC
Duration                                 : 2h 0mn
Bit rate                                 : 2 343 Kbps
Width                                    : 1 920 pixels
Height                                   : 800 pixels
Display aspect ratio                     : 2.40:1
Frame rate mode                          : Constant
Frame rate                               : 23.976 fps
Color space                              : YUV
Chroma subsampling                       : 4:2:0
Bit depth                                : 8 bits
Bits/(Pixel*Frame)                       : 0.064
Stream size                              : 1.97 GiB (74%)
Writing library                          : x265 2.1:[Windows][GCC 5.3.1][64 bit] 8bit
Encoding settings                        : wpp / ctu=64 / min-cu-size=8 / max-tu-size=32 / tu-intra-depth=1 / tu-inter-depth=1 / me=1 / subme=2 / merange=57 / no-rect / no-amp / max-merge=2 / temporal-mvp / no-early-skip / rskip / rdpenalty=0 / no-tskip / no-tskip-fast / strong-intra-smoothing / no-lossless / no-cu-lossless / no-constrained-intra / fast-intra / open-gop / no-temporal-layers / interlace=0 / keyint=240 / min-keyint=24 / scenecut=40 / rc-lookahead=15 / lookahead-slices=5 / bframes=4 / bframe-bias=0 / b-adapt=0 / ref=3 / limit-refs=3 / no-limit-modes / weightp / no-weightb / aq-mode=1 / qg-size=32 / aq-strength=1.00 / cbqpoffs=0 / crqpoffs=0 / rd=2 / psy-rd=2.00 / rdoq-level=0 / psy-rdoq=0.00 / log2-max-poc-lsb=8 / no-rd-refine / signhide / deblock=0:0 / sao / no-sao-non-deblock / b-pyramid / cutree / no-intra-refresh / rc=crf / crf=20.0 / qcomp=0.60 / qpmin=0 / qpmax=69 / qpstep=4 / ipratio=1.40 / pbratio=1.30
Default                                  : Yes
Forced                                   : No
DURATION                                 : 02:00:24.593000000
NUMBER_OF_FRAMES                         : 173217
NUMBER_OF_BYTES                          : 2158415859
_STATISTICS_WRITING_APP                  : mkvmerge v30.1.0 ('Forever And More') 64-bit
_STATISTICS_WRITING_DATE_UTC             : 2019-01-23 11:11:09
_STATISTICS_TAGS                         : BPS DURATION NUMBER_OF_FRAMES NUMBER_OF_BYTES

Audio #1
ID                                       : 2
Format                                   : AC-3
Format/Info                              : Audio Coding 3
Mode extension                           : CM (complete main)
Format settings, Endianness              : Big
Codec ID                                 : A_AC3
Duration                                 : 2h 0mn
Bit rate mode                            : Constant
Bit rate                                 : 384 Kbps
Channel(s)                               : 6 channels
Channel positions                        : Front: L C R, Side: L R, LFE
Sampling rate                            : 48.0 KHz
Bit depth                                : 16 bits
Compression mode                         : Lossy
Delay relative to video                  : -5ms
Stream size                              : 331 MiB (12%)
Title                                    : Surround
Language                                 : German
Default                                  : Yes
Forced                                   : Yes
DURATION                                 : 02:00:24.544000000
NUMBER_OF_FRAMES                         : 225767
NUMBER_OF_BYTES                          : 346778112
_STATISTICS_WRITING_APP                  : mkvmerge v30.1.0 ('Forever And More') 64-bit
_STATISTICS_WRITING_DATE_UTC             : 2019-01-23 11:11:09
_STATISTICS_TAGS                         : BPS DURATION NUMBER_OF_FRAMES NUMBER_OF_BYTES

Audio #2
ID                                       : 3
Format                                   : AC-3
Format/Info                              : Audio Coding 3
Mode extension                           : CM (complete main)
Format settings, Endianness              : Big
Codec ID                                 : A_AC3
Duration                                 : 2h 0mn
Bit rate mode                            : Constant
Bit rate                                 : 384 Kbps
Channel(s)                               : 6 channels
Channel positions                        : Front: L C R, Side: L R, LFE
Sampling rate                            : 48.0 KHz
Bit depth                                : 16 bits
Compression mode                         : Lossy
Delay relative to video                  : -5ms
Stream size                              : 331 MiB (12%)
Title                                    : Surround
Language                                 : English
Default                                  : No
Forced                                   : No
DURATION                                 : 02:00:24.512000000
NUMBER_OF_FRAMES                         : 225766
NUMBER_OF_BYTES                          : 346776576
_STATISTICS_WRITING_APP                  : mkvmerge v30.1.0 ('Forever And More') 64-bit
_STATISTICS_WRITING_DATE_UTC             : 2019-01-23 11:11:09
_STATISTICS_TAGS                         : BPS DURATION NUMBER_OF_FRAMES NUMBER_OF_BYTES



Download:
Share Online Share OnlineShare OnlineShare Online
 

Kommentare