DNS SERVER ÄNDERN, um der staatlichen Zensur zu entgehen. Sollten wir von eurem Provider gesperrt werden, nutzt den TOR BROWSER oder ändert euren DNS SERVER.

Filmwünsche können bei uns im Forum abgegeben werden

Wir Speichern Nicht




 
 
 
Top Releases
The.Unthinkable.Die.unbekann...
Polar.2019.German.DL.1080p.W...
Bachelors.Der.Weg.zurueck.in...
Bachelors.Der.Weg.zurueck.in...
Bachelors.Der.Weg.zurueck.in...
Die.Unglaublichen.2.2018.MUL...
Gundermann.2018.GERMAN.COMPL...
Western.2017.German.1080p.Bl...
Western.2017.German.720p.Blu...
303.German.1080p.BluRay.x264...

Cinedubs
Climax.2018.German.Dubbed.AC...
Der.Grinch.2018.German.AC3LD...
Der.Grinch.2018.German.AC3LD...
Aquaman.2018.German.DL.AC3.D...
Aquaman.2018.German.DL.AC3.D...
Siberia.2018.German.AC3D.WEB...
Siberia.2018.German.AC3D.WEB...
Climax.2018.German.DL.AC3.10...
Climax.2018.German.DL.AC3.72...
Mortal.Engines.Krieg.der.Sta...

Neuerscheinungen 2018-19
Flucht.aus.Zahrain.Escape.fr...
The.Hitcher.Der.Highway.Kill...
House.of.Purgatory.2016.GERM...
Alien.Expedition.Voyage.Into...
Anne.Der.Fluch.der.Puppen.20...
Anne.Der.Fluch.der.Puppen.20...
In.einem.Jahr.mit.13.Monden....
Animas.2018.German.1080p.WEB...
Animas.2018.German.720p.WEBR...
Gundermann.2018.GERMAN.1080p...

XXX
OyeLoca.19.01.13.Anainda.Has...
PornMegaLoad.19.01.11.Diamon...
MonstersOfCock.19.01.13.Anal...
MomPov.E447.Tracie.XXX.1080p...
Private.Best.Of.Erika.Belluc...
BangBus.19.01.09.Kayla.Paris...
ClubSeventeen.19.01.09.Jessy...
BuccWild.18.04.26.Ebony.Ride...
RodneyMoore.19.01.11.Kristy....
JeshByJesh.19.01.10.Isabelle...
OralOverdose.19.01.10.Fallon...
ConorCoxxx.19.01.11.Stephani...
Hitzefrei.19.01.11.Anissa.Ka...
CzechCasting.19.01.10.Patric...
ErotiqueTVLive.18.08.23.Fall...
BuccWild.18.04.16.Kristy.Ama...
PlumperPass.19.01.09.Betty.B...
ErotiqueTVLive.18.08.18.Kyli...
MomPov.E433.Harley.XXX.1080p...
WankItNow.19.01.12.Tindra.Fr...

3D
Die.Reise.zum.Mittelpunkt.de...
Die.Reise.zum.Mittelpunkt.de...
Die.Reise.zum.Mittelpunkt.de...
Kaluoka.Hina.Das.Zauberriff....
Blade.Runner.2049.3D.2017.Ge...
Walhalla.Rising.3D.2009.DUAL...
Sleepwalker.3D.2011.DUAL.COM...
Bis.an.die.Grenzen.des.Unive...
Best.of.3D.vol.13.-.15.GERMA...
Limbradur.und.die.Magie.der....
Kaluoka.Hina.Das.Zauberriff....
Limbradur.und.die.Magie.der....
Smallfoot.3D.2018.COMPLETE.B...
Smallfoot.Ein.eisigartiges.A...
Skyscraper.3D.2018.German.DL...

Old_Stuff
Ip.Man.2.2010.German.DTS.108...
Todfreunde.aka.Bad.Influence...
Animatrix.2003.German.DL.108...
Animatrix.2003.German.DL.720...
Akte.X.S06.German.DTS.DL.108...
The.Beauty.of.Gemina.Minor.S...
ZZ.Top.Live.from.Texas.2008....
Peter.Hase.2018.German.DL.10...
Akte.X.S05.German.DTS.DL.108...
Akte.X.S04.German.DTS.DL.108...
Akte.X.S03.German.DTS.DL.108...
Dunkirk.1958.COMPLETE.BLURAY...
Das.Wunder.von.Manhattan.199...
The.Amazing.Spiderman.2.Rise...
Rise.of.the.Predator.2014.Ge...

Filme
Z.Nation.S04.COMPLETE.German...
Star.Trek.Discovery.S02.Germ...
Criminal.Minds.S14.German.DL...
Criminal.Minds.S14.German.DL...
Unbreakable.Kimmy.Schmidt.S0...
Monster.2017.S01.German.DD+2...
Monster.2017.S01.German.DD+2...
Two.and.a.half.Men.S03.COMPL...
Two.and.a.half.Men.S04.Germa...
Critters.2.1988.German.AC3D....
Antarctica.-.Gefangen.im.Eis...
187.Eine.toedliche.Zahl.1997...
Haus.der.Todsuenden.UNCUT.19...
Sugarland.Express.1974.Germa...
Kopfgeld.1996.German.DL.1080...
Oblivion.2013.German.DTS.DL....
Phantastische.Tierwesen.und....
Goodbye.Lover.1998.German.10...
Helden.aus.der.zweiten.Reihe...
Z.Nation.S04D01-4.MULTi.COMP...
Der.rasende.Gockel.1983.Germ...
Der.rasende.Gockel.1983.Germ...
Luetzower.1972.German.1080p....
Luetzower.1972.German.720p.W...

 
 
Unbreakable.Kimmy.Schmidt.S04.COMPLETE.German.Dubbed.DL.720p.WEB.x264-BiGiNT

Jahr: 2018
Genre: Komödie | Drama
Sprache: Deutsch AC3 | Englisch AC3
Laufzeit: 26min je Folge
Bitrate: 2300 Kbps
Format: MKV
Größe: 600MB je Folge
Release:

Beschreibung:

Kimmy Schmidt hat die vergangenen 15 Jahre in einer Sekte verbracht hat und versucht nun, wieder ein normales Leben in New York zu beginnen. Dabei findet sie schnell einen neuen Job und eine Wohnung mit Titus als Mitbewohner.



General
Complete name                            : Unbreakable.Kimmy.Schmidt.S04E01.German.Dubbed.DL.720p.WEB.x264-BiGiNT\unbreakable.kimmy.schmidt.s04e01.german.dubbed.dl.720p.web.x264-bigint.mkv
Format                                   : Matroska
Format version                           : Version 4 / Version 2
File size                                : 591 MiB
Duration                                 : 26mn 20s
Overall bit rate mode                    : Variable
Overall bit rate                         : 3 139 Kbps
Encoded date                             : UTC 2018-05-30 10:58:10
Writing application                      : mkvmerge v13.0.0 ('The Juggler') 64bit
Writing library                          : libebml v1.3.4 + libmatroska v1.4.5
DURATION                                 : 00:25:33.824000000
NUMBER_OF_FRAMES                         : 566
NUMBER_OF_BYTES                          : 24854
_STATISTICS_WRITING_APP                  : mkvmerge v13.0.0 ('The Juggler') 64bit
_STATISTICS_WRITING_DATE_UTC             : 2018-05-30 10:58:10
_STATISTICS_TAGS                         : BPS DURATION NUMBER_OF_FRAMES NUMBER_OF_BYTES

Video
ID                                       : 1
Format                                   : AVC
Format/Info                              : Advanced Video Codec
Format profile                           : Main@L3.1
Format settings, CABAC                   : Yes
Format settings, ReFrames                : 3 frames
Codec ID                                 : V_MPEG4/ISO/AVC
Duration                                 : 26mn 20s
Bit rate mode                            : Variable
Bit rate                                 : 2 308 Kbps
Nominal bit rate                         : 2 490 Kbps
Maximum bit rate                         : 3 735 Kbps
Width                                    : 1 280 pixels
Height                                   : 720 pixels
Display aspect ratio                     : 16:9
Frame rate mode                          : Constant
Frame rate                               : 23.976 fps
Color space                              : YUV
Chroma subsampling                       : 4:2:0
Bit depth                                : 8 bits
Scan type                                : Progressive
Bits/(Pixel*Frame)                       : 0.104
Stream size                              : 435 MiB (74%)
Writing library                          : x264 core 148 r2715 7e75228
Encoding settings                        : cabac=1 / ref=3 / deblock=1:0:0 / analyse=0x1:0x111 / me=umh / subme=10 / psy=1 / psy_rd=1.00:0.00 / mixed_ref=1 / me_range=24 / chroma_me=1 / trellis=2 / 8x8dct=0 / cqm=0 / deadzone=21,11 / fast_pskip=1 / chroma_qp_offset=-2 / threads=8 / lookahead_threads=1 / sliced_threads=0 / nr=0 / decimate=1 / interlaced=0 / bluray_compat=0 / stitchable=1 / constrained_intra=0 / bframes=2 / b_pyramid=0 / b_adapt=2 / b_bias=0 / direct=3 / weightb=1 / open_gop=0 / weightp=2 / keyint=48 / keyint_min=25 / scenecut=0 / intra_refresh=0 / rc_lookahead=48 / rc=2pass / mbtree=1 / bitrate=2490 / ratetol=1.0 / qcomp=0.50 / qpmin=6 / qpmax=51 / qpstep=4 / cplxblur=20.0 / qblur=0.5 / vbv_maxrate=3735 / vbv_bufsize=4980 / nal_hrd=vbr / filler=0 / ip_ratio=1.40 / aq=1:1.00
Default                                  : Yes
Forced                                   : No
DURATION                                 : 00:26:20.192000000
NUMBER_OF_FRAMES                         : 49381
NUMBER_OF_BYTES                          : 75849216
_STATISTICS_WRITING_APP                  : mkvmerge v13.0.0 ('The Juggler') 64bit
_STATISTICS_WRITING_DATE_UTC             : 2018-05-30 10:58:10
_STATISTICS_TAGS                         : BPS DURATION NUMBER_OF_FRAMES NUMBER_OF_BYTES

Audio #1
ID                                       : 2
Format                                   : AC-3
Format/Info                              : Audio Coding 3
Mode extension                           : CM (complete main)
Format settings, Endianness              : Big
Codec ID                                 : A_AC3
Duration                                 : 26mn 20s
Bit rate mode                            : Constant
Bit rate                                 : 384 Kbps
Channel(s)                               : 6 channels
Channel positions                        : Front: L C R, Side: L R, LFE
Sampling rate                            : 48.0 KHz
Bit depth                                : 16 bits
Compression mode                         : Lossy
Stream size                              : 72.3 MiB (12%)
Language                                 : German
Default                                  : Yes
Forced                                   : No

Audio #2
ID                                       : 3
Format                                   : AC-3
Format/Info                              : Audio Coding 3
Mode extension                           : CM (complete main)
Format settings, Endianness              : Big
Codec ID                                 : A_AC3
Duration                                 : 26mn 20s
Bit rate mode                            : Constant
Bit rate                                 : 384 Kbps
Channel(s)                               : 6 channels
Channel positions                        : Front: L C R, Side: L R, LFE
Sampling rate                            : 48.0 KHz
Bit depth                                : 16 bits
Compression mode                         : Lossy
Stream size                              : 72.3 MiB (12%)
Language                                 : English
Default                                  : No
Forced                                   : No

Text #1
ID                                       : 4
Format                                   : UTF-8
Codec ID                                 : S_TEXT/UTF8
Codec ID/Info                            : UTF-8 Plain Text
Title                                    : Forced
Language                                 : German
Default                                  : Yes
Forced                                   : Yes

Text #2
ID                                       : 5
Format                                   : UTF-8
Codec ID                                 : S_TEXT/UTF8
Codec ID/Info                            : UTF-8 Plain Text
Title                                    : German
Language                                 : German
Default                                  : No
Forced                                   : No

Text #3
ID                                       : 6
Format                                   : UTF-8
Codec ID                                 : S_TEXT/UTF8
Codec ID/Info                            : UTF-8 Plain Text
Title                                    : English (Forced)
Language                                 : English
Default                                  : No
Forced                                   : No

Text #4
ID                                       : 7
Format                                   : UTF-8
Codec ID                                 : S_TEXT/UTF8
Codec ID/Info                            : UTF-8 Plain Text
Title                                    : English
Language                                 : English
Default                                  : No
Forced                                   : No



Download:
Share-Online.biz Share-Online.bizShare-Online.bizShare-Online.biz | Rapidgator.net Rapidgator.netRapidgator.netRapidgator.net
 

Kommentare