DNS SERVER ÄNDERN, um der staatlichen Zensur zu entgehen. Sollten wir von eurem Provider gesperrt werden, nutzt den TOR BROWSER oder ändert euren DNS SERVER.

Filmwünsche können bei uns im Forum abgegeben werden

Wir Speichern Nicht




 
 
 
Top Releases
The.Unthinkable.Die.unbekann...
Polar.2019.German.DL.1080p.W...
Bachelors.Der.Weg.zurueck.in...
Bachelors.Der.Weg.zurueck.in...
Bachelors.Der.Weg.zurueck.in...
Die.Unglaublichen.2.2018.MUL...
Gundermann.2018.GERMAN.COMPL...
Western.2017.German.1080p.Bl...
Western.2017.German.720p.Blu...
303.German.1080p.BluRay.x264...

Cinedubs
Climax.2018.German.Dubbed.AC...
Der.Grinch.2018.German.AC3LD...
Der.Grinch.2018.German.AC3LD...
Aquaman.2018.German.DL.AC3.D...
Aquaman.2018.German.DL.AC3.D...
Siberia.2018.German.AC3D.WEB...
Siberia.2018.German.AC3D.WEB...
Climax.2018.German.DL.AC3.10...
Climax.2018.German.DL.AC3.72...
Mortal.Engines.Krieg.der.Sta...

Neuerscheinungen 2018-19
Cocoon.1985.MULTi.COMPLETE.B...
Flucht.aus.Zahrain.Escape.fr...
The.Hitcher.Der.Highway.Kill...
House.of.Purgatory.2016.GERM...
Alien.Expedition.Voyage.Into...
Anne.Der.Fluch.der.Puppen.20...
Anne.Der.Fluch.der.Puppen.20...
In.einem.Jahr.mit.13.Monden....
Animas.2018.German.1080p.WEB...
Animas.2018.German.720p.WEBR...

XXX
OyeLoca.19.01.13.Anainda.Has...
PornMegaLoad.19.01.11.Diamon...
MonstersOfCock.19.01.13.Anal...
MomPov.E447.Tracie.XXX.1080p...
Private.Best.Of.Erika.Belluc...
BangBus.19.01.09.Kayla.Paris...
ClubSeventeen.19.01.09.Jessy...
BuccWild.18.04.26.Ebony.Ride...
RodneyMoore.19.01.11.Kristy....
JeshByJesh.19.01.10.Isabelle...
OralOverdose.19.01.10.Fallon...
ConorCoxxx.19.01.11.Stephani...
Hitzefrei.19.01.11.Anissa.Ka...
CzechCasting.19.01.10.Patric...
ErotiqueTVLive.18.08.23.Fall...
BuccWild.18.04.16.Kristy.Ama...
PlumperPass.19.01.09.Betty.B...
ErotiqueTVLive.18.08.18.Kyli...
MomPov.E433.Harley.XXX.1080p...
WankItNow.19.01.12.Tindra.Fr...

3D
Die.Reise.zum.Mittelpunkt.de...
Die.Reise.zum.Mittelpunkt.de...
Die.Reise.zum.Mittelpunkt.de...
Kaluoka.Hina.Das.Zauberriff....
Blade.Runner.2049.3D.2017.Ge...
Walhalla.Rising.3D.2009.DUAL...
Sleepwalker.3D.2011.DUAL.COM...
Bis.an.die.Grenzen.des.Unive...
Best.of.3D.vol.13.-.15.GERMA...
Limbradur.und.die.Magie.der....
Kaluoka.Hina.Das.Zauberriff....
Limbradur.und.die.Magie.der....
Smallfoot.3D.2018.COMPLETE.B...
Smallfoot.Ein.eisigartiges.A...
Skyscraper.3D.2018.German.DL...

Old_Stuff
Ip.Man.2.2010.German.DTS.108...
Todfreunde.aka.Bad.Influence...
Animatrix.2003.German.DL.108...
Animatrix.2003.German.DL.720...
Akte.X.S06.German.DTS.DL.108...
The.Beauty.of.Gemina.Minor.S...
ZZ.Top.Live.from.Texas.2008....
Peter.Hase.2018.German.DL.10...
Akte.X.S05.German.DTS.DL.108...
Akte.X.S04.German.DTS.DL.108...
Akte.X.S03.German.DTS.DL.108...
Dunkirk.1958.COMPLETE.BLURAY...
Das.Wunder.von.Manhattan.199...
The.Amazing.Spiderman.2.Rise...
Rise.of.the.Predator.2014.Ge...

Filme
The.Grand.Tour.S03.German.DL...
The.Grand.Tour.S03.German.DL...
Der.Pass.S01.GERMAN.1080p.HD...
Der.Pass.S01.GERMAN.720p.HDT...
Castle.Rock.S01.German.DL.DU...
Castle.Rock.S01.German.DL.DU...
Two.and.a.half.Men.S02.COMPL...
House.of.Purgatory.2016.COMP...
Z.Nation.S04.COMPLETE.German...
Z.Nation.S04.COMPLETE.German...
Star.Trek.Discovery.S02.Germ...
Criminal.Minds.S14.German.DL...
Criminal.Minds.S14.German.DL...
Unbreakable.Kimmy.Schmidt.S0...
Monster.2017.S01.German.DD+2...
Monster.2017.S01.German.DD+2...
Two.and.a.half.Men.S03.COMPL...
Two.and.a.half.Men.S04.Germa...
Critters.2.1988.German.AC3D....
Antarctica.-.Gefangen.im.Eis...
187.Eine.toedliche.Zahl.1997...
Haus.der.Todsuenden.UNCUT.19...
Sugarland.Express.1974.Germa...
Kopfgeld.1996.German.DL.1080...

 
 
Der.Pass.S01.GERMAN.720p.HDTV.x264-ACED

Jahr: 2019
Genre: Krimi | Drama | Thriller
Sprache: Deutsch AC3
Laufzeit: 42min je Folge
Bitrate: 2000 Kbps
Format: MKV
Größe: 750 MB je Folge
Release:

Beschreibung:

In den verschneiten Bergen, auf einem Grenzstein zwischen Deutschland und Österreich liegt eine seltsam inszenierte Leiche.Beide Länder schicken Ermittler: die junge Ellie Stocker (Julia Jentsch) aus Berchtesgaden und Gedeon Winter (Nicholas Ofzcarek) von der Kripo Salzburg. Stocker übernimmt hochmotiviert ihren ersten großen Fall, während Winter, ein desillusionierter Zyniker, die Ermittlungen am liebsten ganz auf seine deutsche Kollegin abschieben würde. Zwischenmenschliche Spannungen sind vorprogrammiert. Aber die zwei müssen kooperieren. Denn es geschehen weitere Morde. Und sie tragen die gleiche Handschrift. Schnell steht fest, dass ein Serienmörder am Werk ist. Nach der Beschreibung eines überlebenden Opfers entsteht eine Phantomzeichnung des Täters. Sie zeigt die teuflische Fratze eines Krampus, eines jener furchterregenden Begleiter des heiligen Nikolaus, die unartige Kinder bestrafen. Verfolgt der Mörder womöglich eine Mission? Schockierende Audionachrichten, die bei einem Journalisten eingehen, erhärten diesen Verdacht. In jeder von ihnen ist die Rede von der "roten Jahreszeit".

 

enthaltene Folgen:

Der.Pass.S01E01.GERMAN.720p.HDTV.x264-ACED NEU

Der.Pass.S01E02.GERMAN.720p.HDTV.x264-ACED NEU



General
Complete name                            : Der.Pass.S01E01.GERMAN.720p.HDTV.x264-ACED\Der.Pass.S01E01.GERMAN.720p.HDTV.x264-ACED.mkv
Format                                   : Matroska
Format version                           : Version 4 / Version 2
File size                                : 760 MiB
Duration                                 : 42mn 30s
Overall bit rate                         : 2 501 Kbps
Encoded date                             : UTC 2019-01-25 20:13:46
Writing application                      : mkvmerge v28.2.0 ('The Awakening') 64-bit
Writing library                          : Lavf57.83.100

Video
ID                                       : 1
Format                                   : AVC
Format/Info                              : Advanced Video Codec
Format profile                           : High@L4.1
Format settings, CABAC                   : Yes
Format settings, ReFrames                : 5 frames
Codec ID                                 : V_MPEG4/ISO/AVC
Duration                                 : 42mn 30s
Bit rate                                 : 2 068 Kbps
Width                                    : 1 280 pixels
Height                                   : 536 pixels
Display aspect ratio                     : 2.40:1
Frame rate mode                          : Constant
Frame rate                               : 25.000 fps
Color space                              : YUV
Chroma subsampling                       : 4:2:0
Bit depth                                : 8 bits
Scan type                                : Progressive
Bits/(Pixel*Frame)                       : 0.121
Stream size                              : 629 MiB (83%)
Writing library                          : x264 core 155 r2901 7d0ff22
Encoding settings                        : cabac=1 / ref=5 / deblock=1:-3:-3 / analyse=0x3:0x113 / me=umh / subme=9 / psy=1 / psy_rd=1.00:0.00 / mixed_ref=1 / me_range=16 / chroma_me=1 / trellis=2 / 8x8dct=1 / cqm=0 / deadzone=21,11 / fast_pskip=0 / chroma_qp_offset=-2 / threads=17 / lookahead_threads=1 / sliced_threads=0 / nr=0 / decimate=1 / interlaced=0 / bluray_compat=0 / constrained_intra=0 / bframes=3 / b_pyramid=2 / b_adapt=1 / b_bias=0 / direct=3 / weightb=1 / open_gop=0 / weightp=2 / keyint=200 / keyint_min=20 / scenecut=40 / intra_refresh=0 / rc_lookahead=50 / rc=crf / mbtree=1 / crf=18.0 / qcomp=0.60 / qpmin=0 / qpmax=69 / qpstep=4 / ip_ratio=1.40 / aq=1:1.00
Default                                  : Yes
Forced                                   : No
DURATION                                 : 00:42:30.240000000

Audio
ID                                       : 2
Format                                   : AC-3
Format/Info                              : Audio Coding 3
Mode extension                           : CM (complete main)
Format settings, Endianness              : Big
Codec ID                                 : A_AC3
Duration                                 : 42mn 30s
Bit rate mode                            : Constant
Bit rate                                 : 384 Kbps
Channel(s)                               : 6 channels
Channel positions                        : Front: L C R, Side: L R, LFE
Sampling rate                            : 48.0 KHz
Bit depth                                : 16 bits
Compression mode                         : Lossy
Delay relative to video                  : -1s 480ms
Stream size                              : 117 MiB (15%)
Language                                 : German
Default                                  : Yes
Forced                                   : No
DURATION                                 : 00:42:30.144000000



Download:
Share-Online.biz Share-Online.bizShare-Online.bizShare-Online.biz | Rapidgator.net Rapidgator.netRapidgator.netRapidgator.net
 

Kommentare