DNS SERVER ÄNDERN, um der staatlichen Zensur zu entgehen. Sollten wir von eurem Provider gesperrt werden, nutzt den TOR BROWSER oder ändert euren DNS SERVER.

Filmwünsche können bei uns im Forum abgegeben werden

Wir Speichern Nicht




 
 
 
Top Releases
Searching.2018.German.DL.108...
Searching.2018.German.720p.B...
Prodigy.Uebernatuerlich.2017...
Prodigy.Uebernatuerlich.2017...
Prodigy.Uebernatuerlich.2017...
Bohemian.Rhapsody.2018.Germa...
Bohemian.Rhapsody.2018.Germa...
Prodigy.2017.COMPLETE.BLURAY...
The.Unthinkable.Die.unbekann...
Polar.2019.German.DL.1080p.W...

Cinedubs
Der.Grinch.German.DL.AC3.Dub...
Der.Grinch.German.DL.AC3.Dub...
Phantastische.Tierwesen.Grin...
Phantastische.Tierwesen.Grin...
Climax.2018.German.Dubbed.AC...
Der.Grinch.2018.German.AC3LD...
Der.Grinch.2018.German.AC3LD...
Aquaman.2018.German.DL.AC3.D...
Aquaman.2018.German.DL.AC3.D...
Siberia.2018.German.AC3D.WEB...

Neuerscheinungen 2018-19
House.of.Purgatory.2016.GERM...
End.of.the.World.Gefahr.aus....
End.of.the.World.Gefahr.aus....
Edhel.2017.German.DL.1080p.B...
Edhel.2017.German.720p.BluRa...
Edhel.2017.German.1080p.BluR...
Alien.Expedition.Voyage.Into...
Alien.Expedition.Voyage.Into...
Patient.Seven.2016.GERMAN.DL...
Hitcher.Der.Highway.Killer.1...

XXX
Fitting-Room.19.01.12.Ariel....
Lesbea.19.01.13.Cindy.Shine....
FamilyLust.19.01.08.Keilani....
MomPov.E434.Agatha.XXX.1080p...
Dredds.Teen.Devastation.XXX....
Bang.Glamkore.19.01.10.Katie...
FiLFExtra.E37.Ashton.Devine....
AllOver30.19.01.10.Jasmine.S...
ATKGirlfriends.19.01.09.Kate...
SapphicErotica.19.01.10.Mila...
ConorCoxxx.19.01.04.Rachele....
CherryPimps.19.01.09.Lily.Ad...
BuccWild.18.04.17.Automatic....
FiLFExtra.E33.Eva.Karera.Bro...
ClubSeventeen.19.01.13.Lolly...
Babes.19.01.13.Mercedes.Carr...
LatinaStepMom.19.01.09.Ella....
AllOver30.19.01.09.Lauren.Ph...
Lesbea.19.01.12.Melody.Petit...
BrazzersExxtra.19.01.13.Luna...

3D
Die.Reise.zum.Mittelpunkt.de...
Die.Reise.zum.Mittelpunkt.de...
Die.Reise.zum.Mittelpunkt.de...
Kaluoka.Hina.Das.Zauberriff....
Blade.Runner.2049.3D.2017.Ge...
Walhalla.Rising.3D.2009.DUAL...
Sleepwalker.3D.2011.DUAL.COM...
Bis.an.die.Grenzen.des.Unive...
Best.of.3D.vol.13.-.15.GERMA...
Limbradur.und.die.Magie.der....
Kaluoka.Hina.Das.Zauberriff....
Limbradur.und.die.Magie.der....
Smallfoot.3D.2018.COMPLETE.B...
Smallfoot.Ein.eisigartiges.A...
Skyscraper.3D.2018.German.DL...

Old_Stuff
Ip.Man.2.2010.German.DTS.108...
Todfreunde.aka.Bad.Influence...
Animatrix.2003.German.DL.108...
Animatrix.2003.German.DL.720...
Akte.X.S06.German.DTS.DL.108...
The.Beauty.of.Gemina.Minor.S...
ZZ.Top.Live.from.Texas.2008....
Peter.Hase.2018.German.DL.10...
Akte.X.S05.German.DTS.DL.108...
Akte.X.S04.German.DTS.DL.108...
Akte.X.S03.German.DTS.DL.108...
Dunkirk.1958.COMPLETE.BLURAY...
Das.Wunder.von.Manhattan.199...
The.Amazing.Spiderman.2.Rise...
Rise.of.the.Predator.2014.Ge...

Filme
Hitcher.Der.Highway.Killer.1...
Das.Urteil.-.Jeder.ist.kaeuf...
Beinahe.ein.Engel.1990.1080p...
Kopfjagd.-.Preis.der.Angst.1...
Critters.3.1991.German.AC3D....
Drachenzaehmen.leicht.gemach...
Drachenzaehmen.leicht.gemach...
Monster.2017.S01.COMPLETE.Ge...
Monster.2017.S01.COMPLETE.Ge...
Drachenzaehmen.leicht.gemach...
Drachenzaehmen.leicht.gemach...
Bohemian.Rhapsody.2018.Germa...
The.Grand.Tour.S03.German.DL...
The.Grand.Tour.S03.German.DL...
Der.Pass.S01.GERMAN.1080p.HD...
Der.Pass.S01.GERMAN.720p.HDT...
Castle.Rock.S01.German.DL.DU...
Castle.Rock.S01.German.DL.DU...
Two.and.a.half.Men.S02.COMPL...
House.of.Purgatory.2016.COMP...
Z.Nation.S04.COMPLETE.German...
Z.Nation.S04.COMPLETE.German...
Star.Trek.Discovery.S02.Germ...
Criminal.Minds.S14.German.DL...

 
 
Edhel.2017.German.720p.BluRay.x264-CONTRiBUTiON

Jahr: 2017
Genre: Fantasy
Sprache: Deutsch DTS
Laufzeit: 1h 23mn
Bitrate: 5 630 Kbps
Format: MKV
Größe: 3.28 GiB
Release:

Beschreibung:

Die junge Edhel (Gaia Forte) schämt sich für ihre spitzen Elfenohren und geht daher allen Menschen aus dem Weg. Einzig und allein bei ihrem Pferd Caron fühlt sie sich wirklich wohl und geborgen. Das liegt auch daran, dass Caron ihrem Vater gehörte, der bei einem Unfall ums Leben kam. Seitdem leben Edhel und ihre Mutter Geneva allein, doch die Beziehung der beiden ist von großen Schwierigkeiten geprägt, ständig kriegen sie sich in die Haare. Geneva will ihre Tochter schließlich sogar dazu drängen, sich die Ohren operieren zu lassen, um sich nicht mehr ausgegrenzt zu fühlen. Doch dann begegnet das junge Mädchen einem skurrilen Hausmeister, der sie in das Reich der Fantasie entführt und plötzlich ist alles anders: Edhel glaubt fortan nämlich fest daran, dass sie ins Königreich der Elfen gehört und nicht in die Welt der Menschen gehört.



Complete name                            : edhel.2017.german.720p.bluray.x264-contribution.mkv
Format                                   : Matroska
Format version                           : Version 2
File size                                : 3.28 GiB
Duration                                 : 1h 23mn
Overall bit rate                         : 5 630 Kbps
Writing application                      : mkvmerge v6.6.0 ('The Edge Of The In Between') built on Dec 1 2013 17:55:00
Writing library                          : libebml v1.3.0 + libmatroska v1.4.1

Video
ID                                       : 1
Format                                   : AVC
Format/Info                              : Advanced Video Codec
Format profile                           : High@L4.1
Format settings, CABAC                   : Yes
Format settings, ReFrames                : 5 frames
Codec ID                                 : V_MPEG4/ISO/AVC
Duration                                 : 1h 23mn
Bit rate                                 : 4 118 Kbps
Width                                    : 1 280 pixels
Height                                   : 536 pixels
Display aspect ratio                     : 2.40:1
Frame rate mode                          : Constant
Frame rate                               : 25.000 fps
Color space                              : YUV
Chroma subsampling                       : 4:2:0
Bit depth                                : 8 bits
Scan type                                : Progressive
Bits/(Pixel*Frame)                       : 0.240
Stream size                              : 2.33 GiB (71%)
Writing library                          : x264 core 155 r2901 7d0ff22
Encoding settings                        : cabac=1 / ref=5 / deblock=1:-3:-3 / analyse=0x3:0x133 / me=umh / subme=8 / psy=1 / psy_rd=1.00:0.15 / mixed_ref=1 / me_range=16 / chroma_me=1 / trellis=2 / 8x8dct=1 / cqm=0 / deadzone=21,11 / fast_pskip=0 / chroma_qp_offset=-3 / threads=17 / lookahead_threads=2 / sliced_threads=0 / nr=0 / decimate=1 / interlaced=0 / bluray_compat=0 / constrained_intra=0 / bframes=3 / b_pyramid=2 / b_adapt=2 / b_bias=0 / direct=3 / weightb=1 / open_gop=0 / weightp=2 / keyint=240 / keyint_min=24 / scenecut=40 / intra_refresh=0 / rc_lookahead=40 / rc=2pass / mbtree=1 / bitrate=4118 / ratetol=1.0 / qcomp=0.60 / qpmin=0 / qpmax=69 / qpstep=4 / cplxblur=20.0 / qblur=0.5 / ip_ratio=1.40 / aq=1:1.00
Language                                 : English
Default                                  : Yes
Forced                                   : No

Audio
ID                                       : 2
Format                                   : DTS
Format/Info                              : Digital Theater Systems
Mode                                     : 16
Format settings, Endianness              : Big
Codec ID                                 : A_DTS
Duration                                 : 1h 23mn
Bit rate mode                            : Constant
Bit rate                                 : 1 509 Kbps
Channel(s)                               : 6 channels
Channel positions                        : Front: L C R, Side: L R, LFE
Sampling rate                            : 48.0 KHz
Bit depth                                : 24 bits
Compression mode                         : Lossy
Stream size                              : 899 MiB (27%)
Language                                 : German
Default                                  : Yes
Forced                                   : No


Download:
Share Online Share OnlineShare OnlineShare Online
 

Kommentare