DNS SERVER ÄNDERN, um der staatlichen Zensur zu entgehen. Sollten wir von eurem Provider gesperrt werden, nutzt den TOR BROWSER oder ändert euren DNS SERVER.

Filmwünsche können bei uns im Forum abgegeben werden

Wir Speichern Nicht




 
 
 
Top Releases
Searching.2018.German.DL.108...
Searching.2018.German.720p.B...
Prodigy.Uebernatuerlich.2017...
Prodigy.Uebernatuerlich.2017...
Prodigy.Uebernatuerlich.2017...
Bohemian.Rhapsody.2018.Germa...
Bohemian.Rhapsody.2018.Germa...
Prodigy.2017.COMPLETE.BLURAY...
The.Unthinkable.Die.unbekann...
Polar.2019.German.DL.1080p.W...

Cinedubs
Der.Grinch.German.DL.AC3.Dub...
Der.Grinch.German.DL.AC3.Dub...
Phantastische.Tierwesen.Grin...
Phantastische.Tierwesen.Grin...
Climax.2018.German.Dubbed.AC...
Der.Grinch.2018.German.AC3LD...
Der.Grinch.2018.German.AC3LD...
Aquaman.2018.German.DL.AC3.D...
Aquaman.2018.German.DL.AC3.D...
Siberia.2018.German.AC3D.WEB...

Neuerscheinungen 2018-19
House.of.Purgatory.2016.GERM...
End.of.the.World.Gefahr.aus....
End.of.the.World.Gefahr.aus....
Edhel.2017.German.DL.1080p.B...
Edhel.2017.German.720p.BluRa...
Edhel.2017.German.1080p.BluR...
Alien.Expedition.Voyage.Into...
Alien.Expedition.Voyage.Into...
Patient.Seven.2016.GERMAN.DL...
Hitcher.Der.Highway.Killer.1...

XXX
Fitting-Room.19.01.12.Ariel....
Lesbea.19.01.13.Cindy.Shine....
FamilyLust.19.01.08.Keilani....
MomPov.E434.Agatha.XXX.1080p...
Dredds.Teen.Devastation.XXX....
Bang.Glamkore.19.01.10.Katie...
FiLFExtra.E37.Ashton.Devine....
AllOver30.19.01.10.Jasmine.S...
ATKGirlfriends.19.01.09.Kate...
SapphicErotica.19.01.10.Mila...
ConorCoxxx.19.01.04.Rachele....
CherryPimps.19.01.09.Lily.Ad...
BuccWild.18.04.17.Automatic....
FiLFExtra.E33.Eva.Karera.Bro...
ClubSeventeen.19.01.13.Lolly...
Babes.19.01.13.Mercedes.Carr...
LatinaStepMom.19.01.09.Ella....
AllOver30.19.01.09.Lauren.Ph...
Lesbea.19.01.12.Melody.Petit...
BrazzersExxtra.19.01.13.Luna...

3D
Die.Reise.zum.Mittelpunkt.de...
Die.Reise.zum.Mittelpunkt.de...
Die.Reise.zum.Mittelpunkt.de...
Kaluoka.Hina.Das.Zauberriff....
Blade.Runner.2049.3D.2017.Ge...
Walhalla.Rising.3D.2009.DUAL...
Sleepwalker.3D.2011.DUAL.COM...
Bis.an.die.Grenzen.des.Unive...
Best.of.3D.vol.13.-.15.GERMA...
Limbradur.und.die.Magie.der....
Kaluoka.Hina.Das.Zauberriff....
Limbradur.und.die.Magie.der....
Smallfoot.3D.2018.COMPLETE.B...
Smallfoot.Ein.eisigartiges.A...
Skyscraper.3D.2018.German.DL...

Old_Stuff
Ip.Man.2.2010.German.DTS.108...
Todfreunde.aka.Bad.Influence...
Animatrix.2003.German.DL.108...
Animatrix.2003.German.DL.720...
Akte.X.S06.German.DTS.DL.108...
The.Beauty.of.Gemina.Minor.S...
ZZ.Top.Live.from.Texas.2008....
Peter.Hase.2018.German.DL.10...
Akte.X.S05.German.DTS.DL.108...
Akte.X.S04.German.DTS.DL.108...
Akte.X.S03.German.DTS.DL.108...
Dunkirk.1958.COMPLETE.BLURAY...
Das.Wunder.von.Manhattan.199...
The.Amazing.Spiderman.2.Rise...
Rise.of.the.Predator.2014.Ge...

Filme
Hitcher.Der.Highway.Killer.1...
Das.Urteil.-.Jeder.ist.kaeuf...
Beinahe.ein.Engel.1990.1080p...
Kopfjagd.-.Preis.der.Angst.1...
Critters.3.1991.German.AC3D....
Drachenzaehmen.leicht.gemach...
Drachenzaehmen.leicht.gemach...
Monster.2017.S01.COMPLETE.Ge...
Monster.2017.S01.COMPLETE.Ge...
Drachenzaehmen.leicht.gemach...
Drachenzaehmen.leicht.gemach...
Bohemian.Rhapsody.2018.Germa...
The.Grand.Tour.S03.German.DL...
The.Grand.Tour.S03.German.DL...
Der.Pass.S01.GERMAN.1080p.HD...
Der.Pass.S01.GERMAN.720p.HDT...
Castle.Rock.S01.German.DL.DU...
Castle.Rock.S01.German.DL.DU...
Two.and.a.half.Men.S02.COMPL...
House.of.Purgatory.2016.COMP...
Z.Nation.S04.COMPLETE.German...
Z.Nation.S04.COMPLETE.German...
Star.Trek.Discovery.S02.Germ...
Criminal.Minds.S14.German.DL...

 
 
House.of.Purgatory.2016.GERMAN.DL.1080p.BLuRay.AVC-iTSMEMARiO

Jahr: 2016
Genre: Horror, Thriller
Sprache: Deutsch DTS-HD | Englisch DTS-HD
Laufzeit: 1h 15mn
Bitrate: 27.7 Mbps
Format: MKV
Größe: 14.6 GiB
Release:

Beschreibung:

Jeder Mensch hat seine kleinen, dunklen Geheimnisse, so auch Ryan und seine Freunde, die an Halloween ein legendäres Spukhaus besuchen. Angeblich hat es noch niemand geschafft, das Haus komplett zu durchqueren – die Freunde wollen die ersten sein. Schnell müssen sie jedoch feststellen, dass sie in einer Hölle gefangen sind, aus der es kein Zurück gibt, denn die Geheimnisse, die die Freunde voreinander haben, werden ihnen nun zum Verhängnis!



Complete name                            : house.of.purgatory.2016.german.dl.1080.bluray.avc-itsmemario.mkv
Format                                   : Matroska
Format version                           : Version 4 / Version 2
File size                                : 14.6 GiB
Duration                                 : 1h 15mn
Overall bit rate mode                    : Variable
Overall bit rate                         : 27.7 Mbps
Encoded date                             : UTC 2019-01-25 14:30:50
Writing application                      : mkvmerge v7.9.0 ('Birds') 64bit
Writing library                          : libebml v1.3.1 + libmatroska v1.4.2
DURATION                                 : 01:15:21.920000000
NUMBER_OF_FRAMES                         : 423930
NUMBER_OF_BYTES                          : 1156481040
_STATISTICS_WRITING_APP                  : mkvmerge v7.9.0 ('Birds') 64bit
_STATISTICS_WRITING_DATE_UTC             : 2019-01-25 14:30:50
_STATISTICS_TAGS                         : BPS DURATION NUMBER_OF_FRAMES NUMBER_OF_BYTES

Video
ID                                       : 1
Format                                   : AVC
Format/Info                              : Advanced Video Codec
Format profile                           : High@L4.1
Format settings, CABAC                   : Yes
Format settings, ReFrames                : 4 frames
Format settings, GOP                     : M=4, N=12
Codec ID                                 : V_MPEG4/ISO/AVC
Duration                                 : 1h 15mn
Bit rate mode                            : Variable
Bit rate                                 : 23.1 Mbps
Maximum bit rate                         : 30.0 Mbps
Width                                    : 1 920 pixels
Height                                   : 1 080 pixels
Display aspect ratio                     : 16:9
Frame rate mode                          : Constant
Frame rate                               : 23.976 fps
Standard                                 : NTSC
Color space                              : YUV
Chroma subsampling                       : 4:2:0
Bit depth                                : 8 bits
Scan type                                : Progressive
Bits/(Pixel*Frame)                       : 0.464
Stream size                              : 12.2 GiB (83%)
Default                                  : Yes
Forced                                   : No
Color primaries                          : BT.709
Transfer characteristics                 : BT.709
Matrix coefficients                      : BT.709

Audio #1
ID                                       : 2
Format                                   : DTS
Format/Info                              : Digital Theater Systems
Format profile                           : HRA / Core
Mode                                     : 16
Format settings, Endianness              : Big
Codec ID                                 : A_DTS
Duration                                 : 1h 15mn
Bit rate mode                            : Constant
Bit rate                                 : 2 046 Kbps / 1 509 Kbps
Channel(s)                               : 6 channels
Channel positions                        : Front: L C R, Side: L R, LFE
Sampling rate                            : 48.0 KHz
Bit depth                                : 16 bits
Compression mode                         : Lossy
Stream size                              : 1.08 GiB (7%)
Title                                    : dts
Language                                 : German
Default                                  : Yes
Forced                                   : No

Audio #2
ID                                       : 3
Format                                   : DTS
Format/Info                              : Digital Theater Systems
Format profile                           : HRA / Core
Mode                                     : 16
Format settings, Endianness              : Big
Codec ID                                 : A_DTS
Duration                                 : 1h 15mn
Bit rate mode                            : Constant
Bit rate                                 : 2 046 Kbps / 1 509 Kbps
Channel(s)                               : 6 channels
Channel positions                        : Front: L C R, Side: L R, LFE
Sampling rate                            : 48.0 KHz
Bit depth                                : 16 bits
Compression mode                         : Lossy
Stream size                              : 1.08 GiB (7%)
Title                                    : dts
Language                                 : English
Default                                  : No
Forced                                   : No


Download:
Share Online Share OnlineShare OnlineShare Online
 

Kommentare