DNS SERVER ÄNDERN, um der staatlichen Zensur zu entgehen. Sollten wir von eurem Provider gesperrt werden, nutzt den TOR BROWSER oder ändert euren DNS SERVER.

Filmwünsche können bei uns im Forum abgegeben werden

Wir Speichern Nicht




 
 
 
Top Releases
Stolz.und.Vorurteil.und.Zomb...
Upgrade.2018.German.AC3.DL.1...
The.Man.Who.Killed.Don.Quixo...
The.Man.Who.Killed.Don.Quixo...
Searching.2018.German.DL.108...
Searching.2018.German.DL.108...
Searching.2018.German.720p.B...
Prodigy.Uebernatuerlich.2017...
Prodigy.Uebernatuerlich.2017...
Prodigy.Uebernatuerlich.2017...

Cinedubs
Der.Grinch.German.DL.AC3.Dub...
Der.Grinch.German.DL.AC3.Dub...
Phantastische.Tierwesen.Grin...
Phantastische.Tierwesen.Grin...
Climax.2018.German.Dubbed.AC...
Der.Grinch.2018.German.AC3LD...
Der.Grinch.2018.German.AC3LD...
Aquaman.2018.German.DL.AC3.D...
Aquaman.2018.German.DL.AC3.D...
Climax.2018.German.DL.AC3.10...

Neuerscheinungen 2018-19
Elizabeth.Harvest.2018.Germa...
Elizabeth.Harvest.2018.Germa...
Siberia.Toedliche.Naehe.2018...
Siberia.Toedliche.Naehe.2018...
House.of.Purgatory.2016.GERM...
End.of.the.World.Gefahr.aus....
End.of.the.World.Gefahr.aus....
Edhel.2017.German.DL.1080p.B...
Edhel.2017.German.720p.BluRa...
Edhel.2017.German.1080p.BluR...

XXX
Fitting-Room.19.01.12.Ariel....
Lesbea.19.01.13.Cindy.Shine....
FamilyLust.19.01.08.Keilani....
MomPov.E434.Agatha.XXX.1080p...
Dredds.Teen.Devastation.XXX....
Bang.Glamkore.19.01.10.Katie...
FiLFExtra.E37.Ashton.Devine....
AllOver30.19.01.10.Jasmine.S...
ATKGirlfriends.19.01.09.Kate...
SapphicErotica.19.01.10.Mila...
ConorCoxxx.19.01.04.Rachele....
CherryPimps.19.01.09.Lily.Ad...
BuccWild.18.04.17.Automatic....
FiLFExtra.E33.Eva.Karera.Bro...
ClubSeventeen.19.01.13.Lolly...
Babes.19.01.13.Mercedes.Carr...
LatinaStepMom.19.01.09.Ella....
AllOver30.19.01.09.Lauren.Ph...
Lesbea.19.01.12.Melody.Petit...
BrazzersExxtra.19.01.13.Luna...

3D
Die.Reise.zum.Mittelpunkt.de...
Die.Reise.zum.Mittelpunkt.de...
Die.Reise.zum.Mittelpunkt.de...
Kaluoka.Hina.Das.Zauberriff....
Blade.Runner.2049.3D.2017.Ge...
Walhalla.Rising.3D.2009.DUAL...
Sleepwalker.3D.2011.DUAL.COM...
Bis.an.die.Grenzen.des.Unive...
Best.of.3D.vol.13.-.15.GERMA...
Limbradur.und.die.Magie.der....
Kaluoka.Hina.Das.Zauberriff....
Limbradur.und.die.Magie.der....
Smallfoot.3D.2018.COMPLETE.B...
Smallfoot.Ein.eisigartiges.A...
Skyscraper.3D.2018.German.DL...

Old_Stuff
Ip.Man.2.2010.German.DTS.108...
Todfreunde.aka.Bad.Influence...
Animatrix.2003.German.DL.108...
Animatrix.2003.German.DL.720...
Akte.X.S06.German.DTS.DL.108...
The.Beauty.of.Gemina.Minor.S...
ZZ.Top.Live.from.Texas.2008....
Peter.Hase.2018.German.DL.10...
Akte.X.S05.German.DTS.DL.108...
Akte.X.S04.German.DTS.DL.108...
Akte.X.S03.German.DTS.DL.108...
Dunkirk.1958.COMPLETE.BLURAY...
Das.Wunder.von.Manhattan.199...
The.Amazing.Spiderman.2.Rise...
Rise.of.the.Predator.2014.Ge...

Filme
Cocoon.1985.German.DL.720p.B...
Desperados.Ein.todsicherer.D...
The.100.S05.GERMAN.DUBBED.DL...
The.100.S05.GERMAN.DUBBED.72...
Ray.Donovan.S06.COMPLETE.GER...
Ray.Donovan.S06.COMPLETE.GER...
City.Slickers.1991.4K.Remast...
Cocoon.1985.German.DL.1080p....
Hitcher.Der.Highway.Killer.1...
Das.Urteil.-.Jeder.ist.kaeuf...
Beinahe.ein.Engel.1990.1080p...
Kopfjagd.-.Preis.der.Angst.1...
Critters.3.1991.German.AC3D....
Drachenzaehmen.leicht.gemach...
Drachenzaehmen.leicht.gemach...
Monster.2017.S01.COMPLETE.Ge...
Monster.2017.S01.COMPLETE.Ge...
Drachenzaehmen.leicht.gemach...
Drachenzaehmen.leicht.gemach...
Bohemian.Rhapsody.2018.Germa...
The.Grand.Tour.S03.German.DL...
The.Grand.Tour.S03.German.DL...
Der.Pass.S01.GERMAN.1080p.HD...
Der.Pass.S01.GERMAN.720p.HDT...

 
 
The.Man.Who.Killed.Don.Quixote.2018.German.720p.BluRay.x264-ENCOUNTERS

Jahr: 2018
Genre: Abenteuer, Komödie
Sprache: Deutsch DTS
Laufzeit: 2h 12mn
Bitrate: 3 855 Kbps
Format: MKV
Größe: 3.58 GiB
Release:

Beschreibung:

Der zynische Werbefilmer Toby trifft nach Jahren den alten spanischen Schuhmacher Javier wieder, der sich für den leibhaftigen Don Quixote hält. An der Misere ist Toby Schuld. Kann Toby seinen Fehler je wieder gut machen und so zu seiner Menschlichkeit zurückfinden? Kann Don Quixote seinen Wahn und die Windmühlen des Lebens bezwingen? Oder wird etwa die Liebe alle Grenzen überwinden?



Complete name                            : encounters-thmawhkidoqu_720p.mkv
Format                                   : Matroska
Format version                           : Version 4 / Version 2
File size                                : 3.58 GiB
Duration                                 : 2h 12mn
Overall bit rate                         : 3 855 Kbps
Encoded date                             : UTC 2019-01-26 17:59:06
Writing application                      : mkvmerge v19.0.0 ('Brave Captain') 64-bit
Writing library                          : libebml v1.3.5 + libmatroska v1.4.8
DURATION                                 : 00:23:46.250000000
NUMBER_OF_FRAMES                         : 15
NUMBER_OF_BYTES                          : 363
_STATISTICS_WRITING_APP                  : mkvmerge v19.0.0 ('Brave Captain') 64-bit
_STATISTICS_WRITING_DATE_UTC             : 2019-01-26 17:59:06
_STATISTICS_TAGS                         : BPS DURATION NUMBER_OF_FRAMES NUMBER_OF_BYTES

Video
ID                                       : 1
Format                                   : AVC
Format/Info                              : Advanced Video Codec
Format profile                           : High@L4.1
Format settings, CABAC                   : Yes
Format settings, ReFrames                : 5 frames
Codec ID                                 : V_MPEG4/ISO/AVC
Duration                                 : 2h 12mn
Bit rate                                 : 2 269 Kbps
Width                                    : 1 280 pixels
Height                                   : 536 pixels
Display aspect ratio                     : 2.40:1
Frame rate mode                          : Constant
Frame rate                               : 24.000 fps
Color space                              : YUV
Chroma subsampling                       : 4:2:0
Bit depth                                : 8 bits
Scan type                                : Progressive
Bits/(Pixel*Frame)                       : 0.138
Stream size                              : 2.11 GiB (59%)
Writing library                          : x264 core 157 r2935 545de2f
Encoding settings                        : cabac=1 / ref=5 / deblock=1:-1:-1 / analyse=0x3:0x133 / me=umh / subme=7 / psy=1 / psy_rd=1.00:0.15 / mixed_ref=1 / me_range=16 / chroma_me=1 / trellis=1 / 8x8dct=1 / cqm=0 / deadzone=21,11 / fast_pskip=0 / chroma_qp_offset=-3 / threads=16 / lookahead_threads=2 / sliced_threads=0 / nr=0 / decimate=1 / interlaced=0 / bluray_compat=0 / constrained_intra=0 / bframes=3 / b_pyramid=2 / b_adapt=1 / b_bias=0 / direct=1 / weightb=1 / open_gop=0 / weightp=2 / keyint=250 / keyint_min=24 / scenecut=40 / intra_refresh=0 / rc_lookahead=40 / rc=crf / mbtree=1 / crf=20.0 / qcomp=0.60 / qpmin=0 / qpmax=69 / qpstep=4 / ip_ratio=1.40 / aq=1:1.00
Default                                  : Yes
Forced                                   : No

Audio
ID                                       : 2
Format                                   : DTS
Format/Info                              : Digital Theater Systems
Mode                                     : 16
Format settings, Endianness              : Big
Codec ID                                 : A_DTS
Duration                                 : 2h 12mn
Bit rate mode                            : Constant
Bit rate                                 : 1 509 Kbps
Channel(s)                               : 6 channels
Channel positions                        : Front: L C R, Side: L R, LFE
Sampling rate                            : 48.0 KHz
Bit depth                                : 16 bits
Compression mode                         : Lossy
Stream size                              : 1.40 GiB (39%)
Language                                 : German
Default                                  : Yes
Forced                                   : No

Text
ID                                       : 3
Format                                   : UTF-8
Codec ID                                 : S_TEXT/UTF8
Codec ID/Info                            : UTF-8 Plain Text
Language                                 : German
Default                                  : Yes
Forced                                   : Yes


Download:
Share Online Share OnlineShare OnlineShare Online
 

Kommentare