DNS SERVER ÄNDERN, um der staatlichen Zensur zu entgehen. Sollten wir von eurem Provider gesperrt werden, nutzt den TOR BROWSER oder ändert euren DNS SERVER.

Filmwünsche können bei uns im Forum abgegeben werden

Wir Speichern Nicht




 
 
 
Top Releases
Stolz.und.Vorurteil.und.Zomb...
Upgrade.2018.German.AC3.DL.1...
The.Man.Who.Killed.Don.Quixo...
The.Man.Who.Killed.Don.Quixo...
Searching.2018.German.DL.108...
Searching.2018.German.DL.108...
Searching.2018.German.720p.B...
Prodigy.Uebernatuerlich.2017...
Prodigy.Uebernatuerlich.2017...
Prodigy.Uebernatuerlich.2017...

Cinedubs
Der.Grinch.German.DL.AC3.Dub...
Der.Grinch.German.DL.AC3.Dub...
Phantastische.Tierwesen.Grin...
Phantastische.Tierwesen.Grin...
Climax.2018.German.Dubbed.AC...
Der.Grinch.2018.German.AC3LD...
Der.Grinch.2018.German.AC3LD...
Aquaman.2018.German.DL.AC3.D...
Aquaman.2018.German.DL.AC3.D...
Climax.2018.German.DL.AC3.10...

Neuerscheinungen 2018-19
Elizabeth.Harvest.2018.Germa...
Elizabeth.Harvest.2018.Germa...
Siberia.Toedliche.Naehe.2018...
Siberia.Toedliche.Naehe.2018...
House.of.Purgatory.2016.GERM...
End.of.the.World.Gefahr.aus....
End.of.the.World.Gefahr.aus....
Edhel.2017.German.DL.1080p.B...
Edhel.2017.German.720p.BluRa...
Edhel.2017.German.1080p.BluR...

XXX
Fitting-Room.19.01.12.Ariel....
Lesbea.19.01.13.Cindy.Shine....
FamilyLust.19.01.08.Keilani....
MomPov.E434.Agatha.XXX.1080p...
Dredds.Teen.Devastation.XXX....
Bang.Glamkore.19.01.10.Katie...
FiLFExtra.E37.Ashton.Devine....
AllOver30.19.01.10.Jasmine.S...
ATKGirlfriends.19.01.09.Kate...
SapphicErotica.19.01.10.Mila...
ConorCoxxx.19.01.04.Rachele....
CherryPimps.19.01.09.Lily.Ad...
BuccWild.18.04.17.Automatic....
FiLFExtra.E33.Eva.Karera.Bro...
ClubSeventeen.19.01.13.Lolly...
Babes.19.01.13.Mercedes.Carr...
LatinaStepMom.19.01.09.Ella....
AllOver30.19.01.09.Lauren.Ph...
Lesbea.19.01.12.Melody.Petit...
BrazzersExxtra.19.01.13.Luna...

3D
Die.Reise.zum.Mittelpunkt.de...
Die.Reise.zum.Mittelpunkt.de...
Die.Reise.zum.Mittelpunkt.de...
Kaluoka.Hina.Das.Zauberriff....
Blade.Runner.2049.3D.2017.Ge...
Walhalla.Rising.3D.2009.DUAL...
Sleepwalker.3D.2011.DUAL.COM...
Bis.an.die.Grenzen.des.Unive...
Best.of.3D.vol.13.-.15.GERMA...
Limbradur.und.die.Magie.der....
Kaluoka.Hina.Das.Zauberriff....
Limbradur.und.die.Magie.der....
Smallfoot.3D.2018.COMPLETE.B...
Smallfoot.Ein.eisigartiges.A...
Skyscraper.3D.2018.German.DL...

Old_Stuff
Ip.Man.2.2010.German.DTS.108...
Todfreunde.aka.Bad.Influence...
Animatrix.2003.German.DL.108...
Animatrix.2003.German.DL.720...
Akte.X.S06.German.DTS.DL.108...
The.Beauty.of.Gemina.Minor.S...
ZZ.Top.Live.from.Texas.2008....
Peter.Hase.2018.German.DL.10...
Akte.X.S05.German.DTS.DL.108...
Akte.X.S04.German.DTS.DL.108...
Akte.X.S03.German.DTS.DL.108...
Dunkirk.1958.COMPLETE.BLURAY...
Das.Wunder.von.Manhattan.199...
The.Amazing.Spiderman.2.Rise...
Rise.of.the.Predator.2014.Ge...

Filme
Cocoon.1985.German.DL.720p.B...
Desperados.Ein.todsicherer.D...
The.100.S05.GERMAN.DUBBED.DL...
The.100.S05.GERMAN.DUBBED.72...
Ray.Donovan.S06.COMPLETE.GER...
Ray.Donovan.S06.COMPLETE.GER...
City.Slickers.1991.4K.Remast...
Cocoon.1985.German.DL.1080p....
Hitcher.Der.Highway.Killer.1...
Das.Urteil.-.Jeder.ist.kaeuf...
Beinahe.ein.Engel.1990.1080p...
Kopfjagd.-.Preis.der.Angst.1...
Critters.3.1991.German.AC3D....
Drachenzaehmen.leicht.gemach...
Drachenzaehmen.leicht.gemach...
Monster.2017.S01.COMPLETE.Ge...
Monster.2017.S01.COMPLETE.Ge...
Drachenzaehmen.leicht.gemach...
Drachenzaehmen.leicht.gemach...
Bohemian.Rhapsody.2018.Germa...
The.Grand.Tour.S03.German.DL...
The.Grand.Tour.S03.German.DL...
Der.Pass.S01.GERMAN.1080p.HD...
Der.Pass.S01.GERMAN.720p.HDT...

 
 
Upgrade.2018.German.AC3.DL.1080p.BluRay.x265-FuN

Jahr: 2018
Genre: Action | Sci-Fi | Thriller
Sprache: Deutsch AC3 | Englisch AC3
Laufzeit: 1h 39mn
Bitrate: 2 308 Kbps
Format: MKV
Größe: 1.61 GiB
Release:

Beschreibung:

Die nahe Zukunft. Die technischen Möglichkeiten und bahnbrechende Erfindungen dominieren den Alltag. Grey Trace aber (L. Marshall-Green) gehört zu den technophoben Menschen. Er lebt lieber natürlich und möglichst frei von Abhängigkeiten. Doch das soll sich ändern als er und seine Frau überfallen und ausgeraubt werden. Sie wird ermordet, er überlebt schwer verletzt und ist gelähmt. Und damit das ideale Ziel für einen superreichen Erfinder. Dieser überredet Grey dazu, sich die neue AI namens STEM in seinen Körper implantieren zu lassen um zu testen, wozu sie in der Lage ist. Die Erfolge sind überwältigend und schnell ist Greys Körper mit übermenschlichen Kräften ausgestattet, welche er nutzt um Rache an den Mördern seiner Frau zu suchen




File size                                : 1.61 GiB
Duration                                 : 1h 39mn
Overall bit rate                         : 2 308 Kbps
Encoded date                             : UTC 2019-01-20 03:31:09
Writing application                      : mkvmerge v10.0.0 ('To Drown In You') 64bit
Writing library                          : libebml v1.3.4 + libmatroska v1.4.5
DURATION                                 : 01:39:11.518000000
NUMBER_OF_FRAMES                         : 10
NUMBER_OF_BYTES                          : 22790
_STATISTICS_WRITING_APP                  : mkvmerge v10.0.0 ('To Drown In You') 64bit
_STATISTICS_WRITING_DATE_UTC             : 2019-01-20 03:31:09
_STATISTICS_TAGS                         : BPS DURATION NUMBER_OF_FRAMES NUMBER_OF_BYTES

Video
ID                                       : 1
Format                                   : HEVC
Format/Info                              : High Efficiency Video Coding
Format profile                           : Main@L4.0
Codec ID                                 : V_MPEGH/ISO/HEVC
Duration                                 : 1h 39mn
Bit rate                                 : 1 494 Kbps
Width                                    : 1 920 pixels
Height                                   : 804 pixels
Display aspect ratio                     : 2.40:1
Frame rate mode                          : Constant
Frame rate                               : 23.976 fps
Color space                              : YUV
Chroma subsampling                       : 4:2:0
Bit depth                                : 8 bits
Bits/(Pixel*Frame)                       : 0.040
Stream size                              : 1.04 GiB (65%)
Writing library                          : x265 2.9:[Windows][GCC 7.1.0][64 bit] 8bit+10bit+12bit
Encoding settings                        : cpuid=1111039 / frame-threads=3 / numa-pools=8 / wpp / no-pmode / no-pme / no-psnr / no-ssim / log-level=2 / input-csp=1 / input-res=1920x804 / interlace=0 / total-frames=0 / level-idc=0 / high-tier=1 / uhd-bd=0 / ref=3 / no-allow-non-conformance / no-repeat-headers / annexb / no-aud / no-hrd / info / hash=0 / no-temporal-layers / open-gop / min-keyint=24 / keyint=240 / gop-lookahead=0 / bframes=4 / b-adapt=2 / b-pyramid / bframe-bias=0 / rc-lookahead=20 / lookahead-slices=5 / scenecut=40 / radl=0 / no-intra-refresh / ctu=64 / min-cu-size=8 / no-rect / no-amp / max-tu-size=32 / tu-inter-depth=1 / tu-intra-depth=1 / limit-tu=0 / rdoq-level=0 / dynamic-rd=0.00 / no-ssim-rd / signhide / no-tskip / nr-intra=0 / nr-inter=0 / no-constrained-intra / no-strong-intra-smoothing / max-merge=2 / limit-refs=3 / no-limit-modes / me=1 / subme=2 / merange=57 / temporal-mvp / weightp / no-weightb / no-analyze-src-pics / deblock=0:0 / no-sao / no-sao-non-deblock / rd=3 / no-early-skip / rskip / no-fast-intra / no-tskip-fast / no-cu-lossless / no-b-intra / no-splitrd-skip / rdpenalty=0 / psy-rd=2.00 / psy-rdoq=0.00 / no-rd-refine / no-lossless / cbqpoffs=0 / crqpoffs=0 / rc=crf / crf=20.0 / qcomp=0.60 / qpstep=4 / stats-write=0 / stats-read=0 / ipratio=1.40 / pbratio=1.30 / aq-mode=1 / aq-strength=1.00 / cutree / zone-count=0 / no-strict-cbr / qg-size=32 / no-rc-grain / qpmax=69 / qpmin=0 / no-const-vbv / sar=1 / overscan=0 / videoformat=5 / range=0 / colorprim=1 / transfer=1 / colormatrix=1 / chromaloc=0 / display-window=0 / max-cll=0,0 / min-luma=0 / max-luma=255 / log2-max-poc-lsb=8 / vui-timing-info / vui-hrd-info / slices=1 / no-opt-qp-pps / no-opt-ref-list-length-pps / no-multi-pass-opt-rps / scenecut-bias=0.05 / no-opt-cu-delta-qp / no-aq-motion / no-hdr / no-hdr-opt / no-dhdr10-opt / no-idr-recovery-sei / analysis-reuse-level=5 / scale-factor=0 / refine-intra=0 / refine-inter=0 / refine-mv=0 / no-limit-sao / ctu-info=0 / no-lowpass-dct / refine-mv-type=0 / copy-pic=1 / max-ausize-factor=1.0 / no-dynamic-refine / no-single-sei
Default                                  : Yes
Forced                                   : No
DURATION                                 : 01:39:54.531000000
NUMBER_OF_FRAMES                         : 143725
NUMBER_OF_BYTES                          : 1148491822
_STATISTICS_WRITING_APP                  : mkvmerge v10.0.0 ('To Drown In You') 64bit
_STATISTICS_WRITING_DATE_UTC             : 2019-01-20 03:31:09
_STATISTICS_TAGS                         : BPS DURATION NUMBER_OF_FRAMES NUMBER_OF_BYTES

Audio #1
ID                                       : 2
Format                                   : AC-3
Format/Info                              : Audio Coding 3
Mode extension                           : CM (complete main)
Format settings, Endianness              : Big
Codec ID                                 : A_AC3
Duration                                 : 1h 39mn
Bit rate mode                            : Constant
Bit rate                                 : 384 Kbps
Channel(s)                               : 6 channels
Channel positions                        : Front: L C R, Side: L R, LFE
Sampling rate                            : 48.0 KHz
Bit depth                                : 16 bits
Compression mode                         : Lossy
Delay relative to video                  : -5ms
Stream size                              : 274 MiB (17%)
Title                                    : Surround
Language                                 : German
Default                                  : Yes
Forced                                   : No
DURATION                                 : 01:39:54.528000000
NUMBER_OF_FRAMES                         : 187329
NUMBER_OF_BYTES                          : 287737344
_STATISTICS_WRITING_APP                  : mkvmerge v10.0.0 ('To Drown In You') 64bit
_STATISTICS_WRITING_DATE_UTC             : 2019-01-20 03:31:09
_STATISTICS_TAGS                         : BPS DURATION NUMBER_OF_FRAMES NUMBER_OF_BYTES

Audio #2
ID                                       : 3
Format                                   : AC-3
Format/Info                              : Audio Coding 3
Mode extension                           : CM (complete main)
Format settings, Endianness              : Big
Codec ID                                 : A_AC3
Duration                                 : 1h 39mn
Bit rate mode                            : Constant
Bit rate                                 : 384 Kbps
Channel(s)                               : 6 channels
Channel positions                        : Front: L C R, Side: L R, LFE
Sampling rate                            : 48.0 KHz
Bit depth                                : 16 bits
Compression mode                         : Lossy
Delay relative to video                  : -5ms
Stream size                              : 274 MiB (17%)
Title                                    : Surround
Language                                 : English
Default                                  : No
Forced                                   : No
DURATION                                 : 01:39:54.528000000
NUMBER_OF_FRAMES                         : 187329
NUMBER_OF_BYTES                          : 287737344
_STATISTICS_WRITING_APP                  : mkvmerge v10.0.0 ('To Drown In You') 64bit
_STATISTICS_WRITING_DATE_UTC             : 2019-01-20 03:31:09
_STATISTICS_TAGS                         : BPS DURATION NUMBER_OF_FRAMES NUMBER_OF_BYTES



Download:
Share Online Share OnlineShare OnlineShare Online
 

Kommentare