DNS SERVER ÄNDERN, um der staatlichen Zensur zu entgehen. Sollten wir von eurem Provider gesperrt werden, nutzt den TOR BROWSER oder ändert euren DNS SERVER.

Filmwünsche können bei uns im Forum abgegeben werden

Wir Speichern Nicht




 
 
 
Top Releases
Mile.22.2018.German.AC3.DL.1...
The.Man.Who.Killed.Don.Quixo...
Prodigy.Uebernatuerlich.2017...
Stolz.und.Vorurteil.und.Zomb...
Upgrade.2018.German.AC3.DL.1...
The.Man.Who.Killed.Don.Quixo...
The.Man.Who.Killed.Don.Quixo...
Searching.2018.German.DL.108...
Searching.2018.German.DL.108...
Searching.2018.German.720p.B...

Cinedubs
Der.Grinch.German.DL.AC3.Dub...
Der.Grinch.German.DL.AC3.Dub...
Phantastische.Tierwesen.Grin...
Phantastische.Tierwesen.Grin...
Climax.2018.German.Dubbed.AC...
Der.Grinch.2018.German.AC3LD...
Der.Grinch.2018.German.AC3LD...
Aquaman.2018.German.DL.AC3.D...
Aquaman.2018.German.DL.AC3.D...
Climax.2018.German.DL.AC3.10...

Neuerscheinungen 2018-19
Ein.tolles.Leben.Hast.du.kei...
Siberia.Toedliche.Naehe.2018...
Brokedown.Palace.Die.Hoffnun...
End.of.the.World.2018.COMPLE...
Westernpatrouille.Incident.a...
Elizabeth.Harvest.2018.Germa...
Elizabeth.Harvest.2018.Germa...
Siberia.Toedliche.Naehe.2018...
Siberia.Toedliche.Naehe.2018...
House.of.Purgatory.2016.GERM...

XXX
LesbianX.19.01.12.Goldie.Glo...
Nubiles.19.01.13.Kery.For.Yo...
FiLFExtra.E40.Victoria.Rae.B...
MomPov.E428.Petra.XXX.1080p....
TrickySpa.19.01.09.Abella.Da...
WeLiveTogether.19.01.13.Jenn...
KarupsOW.19.01.08.Cala.Crave...
FiLFExtra.E44.Kimmy.Lee.I.Ca...
RKPrime.19.01.10.Angel.Emily...
SexArt.19.01.09.Melissa.Benz...
FiLFExtra.E32.Hailey.Holiday...
BCM.19.01.09.Sophia.Grace.Pa...
TheWhiteBoxxx.19.01.12.Lexi....
MomKnowsBest.19.01.10.Kira.N...
SexArt.19.01.13.Anya.Krey.Te...
PlayboyPlus.19.01.09.Calypso...
LittleCapriceDreams.19.01.10...
OnlyBlowJob.19.01.10.Ania.Ki...
Milfty.19.01.11.Misty.Stone....
LustyGrandmas.19.01.10.Viole...

3D
Die.Reise.zum.Mittelpunkt.de...
Die.Reise.zum.Mittelpunkt.de...
Die.Reise.zum.Mittelpunkt.de...
Kaluoka.Hina.Das.Zauberriff....
Blade.Runner.2049.3D.2017.Ge...
Walhalla.Rising.3D.2009.DUAL...
Sleepwalker.3D.2011.DUAL.COM...
Bis.an.die.Grenzen.des.Unive...
Best.of.3D.vol.13.-.15.GERMA...
Limbradur.und.die.Magie.der....
Kaluoka.Hina.Das.Zauberriff....
Limbradur.und.die.Magie.der....
Smallfoot.3D.2018.COMPLETE.B...
Smallfoot.Ein.eisigartiges.A...
Skyscraper.3D.2018.German.DL...

Old_Stuff
Transformers.2007.German.AC3...
Ip.Man.2.2010.German.DTS.108...
Todfreunde.aka.Bad.Influence...
Animatrix.2003.German.DL.108...
Animatrix.2003.German.DL.720...
Akte.X.S06.German.DTS.DL.108...
The.Beauty.of.Gemina.Minor.S...
ZZ.Top.Live.from.Texas.2008....
Peter.Hase.2018.German.DL.10...
Akte.X.S05.German.DTS.DL.108...
Akte.X.S04.German.DTS.DL.108...
Akte.X.S03.German.DTS.DL.108...
Dunkirk.1958.COMPLETE.BLURAY...
Das.Wunder.von.Manhattan.199...
The.Amazing.Spiderman.2.Rise...

Filme
The.Perfect.Sleep.2009.Germa...
Guardians.of.the.Galaxy.2014...
Critters.4.1992.German.AC3D....
Sophie.Scholl.-.Die.letzten....
Flypaper.Wer.ueberfaellt.hie...
Weisser.Oleander.aka.White.O...
1.Mord.fuer.2.-.Sleuth.2007....
Harry.Brown.2009.German.DTS....
Sin.City.2.A.Dame.to.Kill.fo...
Die.Paepstin.German.DL.1080p...
Brokedown.Palace.Die.Hoffnun...
Ueberfall.auf.die.Queen.Mary...
Ueberfall.auf.die.Queen.Mary...
Con-Man.-.Aufstieg.und.Fall....
72.Stunden.Deine.letzten.3.T...
Bad.Boys.1995.COMPLETE.BLURA...
Killers.Bodyguard.2017.Germa...
Free.Fire.2016.German.DTS.DL...
Beinahe.ein.Engel.1990.Germa...
Outlander.S04.German.DD51.DL...
Outlander.S04.German.DD51.DL...
FBI.S01.GERMAN.5.1.DUBBED.DL...
Unbreakable.Kimmy.Schmidt.S0...
The.Killing.S01-S04.COMPLETE...

 
 
Sophie.Scholl.-.Die.letzten.Tage.2005.German.AC3.1080p.UK.BluRay.x265-FuN

Jahr: 2005
Genre: Drama
Sprache: Deutsch AC3
Laufzeit: 2h 0mn
Bitrate: 3 101 Kbps
Format: MKV
Größe: 2.61 GiB
Release:

Beschreibung:

Widerstandsgruppe um die Geschwister Hans und Sophie Scholl. In einem Atelier druckt sie heimlich Flugblätter gegen die Nazi-Diktatur. Sie verschickt diese in ganz Deutschland. Hans und Sophie legen ihre Flugblätter auch in der Münchner Universität aus. Vom obersten Stockwerk lässt Sophie einen Stapel Blätter in den Lichthof hinunterregnen. Ein Hausmeister beobachtet die beiden und schlägt Alarm. Hans und Sophie werden von der Geheimen Staatspolizei (Gestapo) verhaftet. Anfangs gelingt es Sophie, den Gestapo-Mann Robert Mohr zu täuschen. Als ihr Bruder aber gesteht, die Flugblätter gedruckt und verteilt zu haben, gibt auch Sophie es zu. Sie versucht, die anderen Mitglieder der
“Weiβen Rose” zu schützen. Trost erfährt sie von ihrer Zellengenossin Else Gebel im Gefängnis. Am 22.Februar findet der Prozess statt. Der Richter der Nationalsozialisten, Roland Freisler, verurteilt sie zum Tode. “Die Sonne scheint noch” ruft sie zu den anderen zu, als man sie zum Schafott führt.




File size                                : 2.61 GiB
Duration                                 : 2h 0mn
Overall bit rate                         : 3 101 Kbps
Movie name                               : www.funxd.pw - deine Quelle fuer x265 Encodes ;)
Encoded date                             : UTC 2019-01-24 06:30:05
Writing application                      : mkvmerge v30.1.0 ('Forever And More') 64-bit
Writing library                          : libebml v1.3.6 + libmatroska v1.4.9

Video
ID                                       : 1
Format                                   : HEVC
Format/Info                              : High Efficiency Video Coding
Format profile                           : Main@L4.0
Codec ID                                 : V_MPEGH/ISO/HEVC
Duration                                 : 2h 0mn
Bit rate                                 : 2 655 Kbps
Width                                    : 1 916 pixels
Height                                   : 1 080 pixels
Display aspect ratio                     : 16:9
Frame rate mode                          : Constant
Frame rate                               : 23.976 fps
Color space                              : YUV
Chroma subsampling                       : 4:2:0
Bit depth                                : 8 bits
Bits/(Pixel*Frame)                       : 0.054
Stream size                              : 2.24 GiB (86%)
Writing library                          : x265 2.9:[Linux][GCC 6.4.0][64 bit] 8bit+10bit+12bit
Encoding settings                        : cpuid=1111039 / frame-threads=3 / wpp / no-pmode / no-pme / no-psnr / no-ssim / log-level=2 / input-csp=1 / input-res=1916x1080 / interlace=0 / total-frames=0 / level-idc=0 / high-tier=1 / uhd-bd=0 / ref=3 / no-allow-non-conformance / no-repeat-headers / annexb / no-aud / no-hrd / info / hash=0 / no-temporal-layers / open-gop / min-keyint=24 / keyint=240 / gop-lookahead=0 / bframes=4 / b-adapt=2 / b-pyramid / bframe-bias=0 / rc-lookahead=20 / lookahead-slices=6 / scenecut=40 / radl=0 / no-intra-refresh / ctu=64 / min-cu-size=8 / no-rect / no-amp / max-tu-size=32 / tu-inter-depth=1 / tu-intra-depth=1 / limit-tu=0 / rdoq-level=0 / dynamic-rd=0.00 / no-ssim-rd / signhide / no-tskip / nr-intra=0 / nr-inter=0 / no-constrained-intra / strong-intra-smoothing / max-merge=2 / limit-refs=3 / no-limit-modes / me=1 / subme=2 / merange=57 / temporal-mvp / weightp / no-weightb / no-analyze-src-pics / deblock=0:0 / no-sao / no-sao-non-deblock / rd=3 / no-early-skip / rskip / no-fast-intra / no-tskip-fast / no-cu-lossless / no-b-intra / no-splitrd-skip / rdpenalty=0 / psy-rd=2.00 / psy-rdoq=0.00 / no-rd-refine / no-lossless / cbqpoffs=0 / crqpoffs=0 / rc=crf / crf=23.0 / qcomp=0.60 / qpstep=4 / stats-write=0 / stats-read=0 / ipratio=1.40 / pbratio=1.30 / aq-mode=1 / aq-strength=1.00 / cutree / zone-count=0 / no-strict-cbr / qg-size=32 / no-rc-grain / qpmax=69 / qpmin=0 / no-const-vbv / sar=1 / overscan=0 / videoformat=5 / range=0 / colorprim=1 / transfer=1 / colormatrix=1 / chromaloc=0 / display-window=0 / max-cll=0,0 / min-luma=0 / max-luma=255 / log2-max-poc-lsb=8 / vui-timing-info / vui-hrd-info / slices=1 / no-opt-qp-pps / no-opt-ref-list-length-pps / no-multi-pass-opt-rps / scenecut-bias=0.05 / no-opt-cu-delta-qp / no-aq-motion / no-hdr / no-hdr-opt / no-dhdr10-opt / no-idr-recovery-sei / analysis-reuse-level=5 / scale-factor=0 / refine-intra=0 / refine-inter=0 / refine-mv=0 / no-limit-sao / ctu-info=0 / no-lowpass-dct / refine-mv-type=0 / copy-pic=1 / max-ausize-factor=1.0 / no-dynamic-refine / no-single-sei
Default                                  : Yes
Forced                                   : No
DURATION                                 : 02:00:32.642000000
NUMBER_OF_FRAMES                         : 173410
NUMBER_OF_BYTES                          : 2438586524
_STATISTICS_WRITING_APP                  : mkvmerge v30.1.0 ('Forever And More') 64-bit
_STATISTICS_WRITING_DATE_UTC             : 2019-01-24 06:30:05
_STATISTICS_TAGS                         : BPS DURATION NUMBER_OF_FRAMES NUMBER_OF_BYTES

Audio
ID                                       : 2
Format                                   : AC-3
Format/Info                              : Audio Coding 3
Mode extension                           : CM (complete main)
Format settings, Endianness              : Big
Codec ID                                 : A_AC3
Duration                                 : 2h 0mn
Bit rate mode                            : Constant
Bit rate                                 : 384 Kbps
Channel(s)                               : 2 channels
Channel positions                        : Front: L R
Sampling rate                            : 48.0 KHz
Bit depth                                : 16 bits
Compression mode                         : Lossy
Delay relative to video                  : -5ms
Stream size                              : 331 MiB (12%)
Title                                    : Stereo
Language                                 : German
Default                                  : Yes
Forced                                   : No
DURATION                                 : 02:00:32.672000000
NUMBER_OF_FRAMES                         : 226021
NUMBER_OF_BYTES                          : 347168256
_STATISTICS_WRITING_APP                  : mkvmerge v30.1.0 ('Forever And More') 64-bit
_STATISTICS_WRITING_DATE_UTC             : 2019-01-24 06:30:05
_STATISTICS_TAGS                         : BPS DURATION NUMBER_OF_FRAMES NUMBER_OF_BYTES



Download:
Share Online Share OnlineShare OnlineShare Online
 

Kommentare