DNS SERVER ÄNDERN, um der staatlichen Zensur zu entgehen. Sollten wir von eurem Provider gesperrt werden, nutzt den TOR BROWSER oder ändert euren DNS SERVER.

Filmwünsche können bei uns im Forum abgegeben werden

Wir Speichern Nicht




 
 
 
Top Releases
Mile.22.2018.German.AC3.DL.1...
The.Man.Who.Killed.Don.Quixo...
Prodigy.Uebernatuerlich.2017...
Stolz.und.Vorurteil.und.Zomb...
Upgrade.2018.German.AC3.DL.1...
The.Man.Who.Killed.Don.Quixo...
The.Man.Who.Killed.Don.Quixo...
Searching.2018.German.DL.108...
Searching.2018.German.DL.108...
Searching.2018.German.720p.B...

Cinedubs
Der.Grinch.German.DL.AC3.Dub...
Der.Grinch.German.DL.AC3.Dub...
Phantastische.Tierwesen.Grin...
Phantastische.Tierwesen.Grin...
Climax.2018.German.Dubbed.AC...
Der.Grinch.2018.German.AC3LD...
Der.Grinch.2018.German.AC3LD...
Aquaman.2018.German.DL.AC3.D...
Aquaman.2018.German.DL.AC3.D...
Climax.2018.German.DL.AC3.10...

Neuerscheinungen 2018-19
Ein.tolles.Leben.Hast.du.kei...
Siberia.Toedliche.Naehe.2018...
Brokedown.Palace.Die.Hoffnun...
End.of.the.World.2018.COMPLE...
Westernpatrouille.Incident.a...
Elizabeth.Harvest.2018.Germa...
Elizabeth.Harvest.2018.Germa...
Siberia.Toedliche.Naehe.2018...
Siberia.Toedliche.Naehe.2018...
House.of.Purgatory.2016.GERM...

XXX
LesbianX.19.01.12.Goldie.Glo...
Nubiles.19.01.13.Kery.For.Yo...
FiLFExtra.E40.Victoria.Rae.B...
MomPov.E428.Petra.XXX.1080p....
TrickySpa.19.01.09.Abella.Da...
WeLiveTogether.19.01.13.Jenn...
KarupsOW.19.01.08.Cala.Crave...
FiLFExtra.E44.Kimmy.Lee.I.Ca...
RKPrime.19.01.10.Angel.Emily...
SexArt.19.01.09.Melissa.Benz...
FiLFExtra.E32.Hailey.Holiday...
BCM.19.01.09.Sophia.Grace.Pa...
TheWhiteBoxxx.19.01.12.Lexi....
MomKnowsBest.19.01.10.Kira.N...
SexArt.19.01.13.Anya.Krey.Te...
PlayboyPlus.19.01.09.Calypso...
LittleCapriceDreams.19.01.10...
OnlyBlowJob.19.01.10.Ania.Ki...
Milfty.19.01.11.Misty.Stone....
LustyGrandmas.19.01.10.Viole...

3D
Die.Reise.zum.Mittelpunkt.de...
Die.Reise.zum.Mittelpunkt.de...
Die.Reise.zum.Mittelpunkt.de...
Kaluoka.Hina.Das.Zauberriff....
Blade.Runner.2049.3D.2017.Ge...
Walhalla.Rising.3D.2009.DUAL...
Sleepwalker.3D.2011.DUAL.COM...
Bis.an.die.Grenzen.des.Unive...
Best.of.3D.vol.13.-.15.GERMA...
Limbradur.und.die.Magie.der....
Kaluoka.Hina.Das.Zauberriff....
Limbradur.und.die.Magie.der....
Smallfoot.3D.2018.COMPLETE.B...
Smallfoot.Ein.eisigartiges.A...
Skyscraper.3D.2018.German.DL...

Old_Stuff
Transformers.2007.German.AC3...
Ip.Man.2.2010.German.DTS.108...
Todfreunde.aka.Bad.Influence...
Animatrix.2003.German.DL.108...
Animatrix.2003.German.DL.720...
Akte.X.S06.German.DTS.DL.108...
The.Beauty.of.Gemina.Minor.S...
ZZ.Top.Live.from.Texas.2008....
Peter.Hase.2018.German.DL.10...
Akte.X.S05.German.DTS.DL.108...
Akte.X.S04.German.DTS.DL.108...
Akte.X.S03.German.DTS.DL.108...
Dunkirk.1958.COMPLETE.BLURAY...
Das.Wunder.von.Manhattan.199...
The.Amazing.Spiderman.2.Rise...

Filme
Slither.Voll.auf.den.Schleim...
Das.Haus.Der.Vergessenen.UNC...
Der.blinde.Fleck.Taeter.Atte...
The.Perfect.Sleep.2009.Germa...
Guardians.of.the.Galaxy.2014...
Critters.4.1992.German.AC3D....
Sophie.Scholl.-.Die.letzten....
Flypaper.Wer.ueberfaellt.hie...
Weisser.Oleander.aka.White.O...
1.Mord.fuer.2.-.Sleuth.2007....
Harry.Brown.2009.German.DTS....
Sin.City.2.A.Dame.to.Kill.fo...
Die.Paepstin.German.DL.1080p...
Brokedown.Palace.Die.Hoffnun...
Ueberfall.auf.die.Queen.Mary...
Ueberfall.auf.die.Queen.Mary...
Con-Man.-.Aufstieg.und.Fall....
72.Stunden.Deine.letzten.3.T...
Bad.Boys.1995.COMPLETE.BLURA...
Killers.Bodyguard.2017.Germa...
Free.Fire.2016.German.DTS.DL...
Beinahe.ein.Engel.1990.Germa...
Outlander.S04.German.DD51.DL...
Outlander.S04.German.DD51.DL...

 
 
Der.blinde.Fleck.Taeter.Attentaeter.Einzeltaeter.2013.German.1080p.BluRay.x264-ENCOUNTERS

Jahr: 2013
Genre: Drama, Thriller
Sprache: Deutsch DTS
Laufzeit: 1h 35mn
Bitrate: 7 896 Kbps
Format: MKV
Größe: 5.26 GiB
Release:

Beschreibung:

Der BR-Reporter Ulrich Chaussey berichtete 1980 über das Oktoberfest-Attentat mit 13 Toten und mehr als 211 zum Teil schwer Verletzten. Im Zuge seiner akribischen Recherchen stößt er auf Ungereimtheiten und Lügen, auf eine Mauer des Schweigens von Justiz und Politik. Bald hegt er Zweifel an den offiziellen Ermittlungsergebnissen und vor allem an der Theorie des Einzeltäters. Die Suche nach der Wahrheit lässt ihn nicht mehr los, auch wenn durch seine Besessenheit fast die Ehe in Gefahr gerät. Die Fakten sind erschreckend.



Complete name                            : encounters-deblfltaatei_1080p.mkv
Format                                   : Matroska
Format version                           : Version 4 / Version 2
File size                                : 5.26 GiB
Duration                                 : 1h 35mn
Overall bit rate                         : 7 896 Kbps
Encoded date                             : UTC 2014-05-16 20:32:37
Writing application                      : mkvmerge v6.9.1 ('Blue Panther') 64bit built on Apr 18 2014 18:23:38
Writing library                          : libebml v1.3.0 + libmatroska v1.4.1

Video
ID                                       : 1
Format                                   : AVC
Format/Info                              : Advanced Video Codec
Format profile                           : High@L4.1
Format settings, CABAC                   : Yes
Format settings, ReFrames                : 5 frames
Codec ID                                 : V_MPEG4/ISO/AVC
Duration                                 : 1h 35mn
Bit rate                                 : 6 971 Kbps
Width                                    : 1 920 pixels
Height                                   : 808 pixels
Display aspect ratio                     : 2.40:1
Frame rate mode                          : Constant
Frame rate                               : 23.976 fps
Color space                              : YUV
Chroma subsampling                       : 4:2:0
Bit depth                                : 8 bits
Scan type                                : Progressive
Bits/(Pixel*Frame)                       : 0.187
Stream size                              : 4.65 GiB (88%)
Writing library                          : x264 core 142 r2431 ac76440
Encoding settings                        : cabac=1 / ref=5 / deblock=1:-1:-1 / analyse=0x3:0x133 / me=umh / subme=7 / psy=1 / psy_rd=1.00:0.15 / mixed_ref=1 / me_range=16 / chroma_me=1 / trellis=1 / 8x8dct=1 / cqm=0 / deadzone=21,11 / fast_pskip=0 / chroma_qp_offset=-3 / threads=6 / lookahead_threads=1 / sliced_threads=0 / nr=0 / decimate=1 / interlaced=0 / bluray_compat=0 / constrained_intra=0 / bframes=3 / b_pyramid=2 / b_adapt=1 / b_bias=0 / direct=1 / weightb=1 / open_gop=0 / weightp=2 / keyint=250 / keyint_min=23 / scenecut=40 / intra_refresh=0 / rc_lookahead=40 / rc=crf / mbtree=1 / crf=20.0 / qcomp=0.60 / qpmin=0 / qpmax=69 / qpstep=4 / ip_ratio=1.40 / aq=1:1.00
Default                                  : Yes
Forced                                   : No

Audio
ID                                       : 2
Format                                   : DTS
Format/Info                              : Digital Theater Systems
Mode                                     : 16
Format settings, Endianness              : Big
Codec ID                                 : A_DTS
Duration                                 : 1h 35mn
Bit rate mode                            : Constant
Bit rate                                 : 768 Kbps
Channel(s)                               : 6 channels
Channel positions                        : Front: L C R, Side: L R, LFE
Sampling rate                            : 48.0 KHz
Bit depth                                : 16 bits
Compression mode                         : Lossy
Stream size                              : 524 MiB (10%)
Language                                 : German
Default                                  : Yes
Forced                                   : No


Download:
Share Online Share OnlineShare OnlineShare Online
 

Kommentare