DNS SERVER ÄNDERN, um der staatlichen Zensur zu entgehen. Sollten wir von eurem Provider gesperrt werden, nutzt den TOR BROWSER oder ändert euren DNS SERVER.

Filmwünsche können bei uns im Forum abgegeben werden

Wir Speichern Nicht




 
 
 
Top Releases
Searching.2018.German.DTS.DL...
Mile.22.2018.German.AC3.DL.1...
The.Man.Who.Killed.Don.Quixo...
Prodigy.Uebernatuerlich.2017...
Stolz.und.Vorurteil.und.Zomb...
Upgrade.2018.German.AC3.DL.1...
The.Man.Who.Killed.Don.Quixo...
The.Man.Who.Killed.Don.Quixo...
Searching.2018.German.DL.108...
Searching.2018.German.DL.108...

Cinedubs
Der.Grinch.German.DL.AC3.Dub...
Der.Grinch.German.DL.AC3.Dub...
Phantastische.Tierwesen.Grin...
Phantastische.Tierwesen.Grin...
Climax.2018.German.Dubbed.AC...
Der.Grinch.2018.German.AC3LD...
Der.Grinch.2018.German.AC3LD...
Aquaman.2018.German.DL.AC3.D...
Aquaman.2018.German.DL.AC3.D...
Climax.2018.German.DL.AC3.10...

Neuerscheinungen 2018-19
Patient.Seven.2016.German.DL...
Siberia.Toedliche.Naehe.2018...
Ein.tolles.Leben.Hast.du.kei...
Siberia.Toedliche.Naehe.2018...
Brokedown.Palace.Die.Hoffnun...
End.of.the.World.2018.COMPLE...
Westernpatrouille.Incident.a...
Elizabeth.Harvest.2018.Germa...
Elizabeth.Harvest.2018.Germa...
Siberia.Toedliche.Naehe.2018...

XXX
LesbianX.19.01.12.Goldie.Glo...
Nubiles.19.01.13.Kery.For.Yo...
FiLFExtra.E40.Victoria.Rae.B...
MomPov.E428.Petra.XXX.1080p....
TrickySpa.19.01.09.Abella.Da...
WeLiveTogether.19.01.13.Jenn...
KarupsOW.19.01.08.Cala.Crave...
FiLFExtra.E44.Kimmy.Lee.I.Ca...
RKPrime.19.01.10.Angel.Emily...
SexArt.19.01.09.Melissa.Benz...
FiLFExtra.E32.Hailey.Holiday...
BCM.19.01.09.Sophia.Grace.Pa...
TheWhiteBoxxx.19.01.12.Lexi....
MomKnowsBest.19.01.10.Kira.N...
SexArt.19.01.13.Anya.Krey.Te...
PlayboyPlus.19.01.09.Calypso...
LittleCapriceDreams.19.01.10...
OnlyBlowJob.19.01.10.Ania.Ki...
Milfty.19.01.11.Misty.Stone....
LustyGrandmas.19.01.10.Viole...

3D
Die.Reise.zum.Mittelpunkt.de...
Die.Reise.zum.Mittelpunkt.de...
Die.Reise.zum.Mittelpunkt.de...
Kaluoka.Hina.Das.Zauberriff....
Blade.Runner.2049.3D.2017.Ge...
Walhalla.Rising.3D.2009.DUAL...
Sleepwalker.3D.2011.DUAL.COM...
Bis.an.die.Grenzen.des.Unive...
Best.of.3D.vol.13.-.15.GERMA...
Limbradur.und.die.Magie.der....
Kaluoka.Hina.Das.Zauberriff....
Limbradur.und.die.Magie.der....
Smallfoot.3D.2018.COMPLETE.B...
Smallfoot.Ein.eisigartiges.A...
Skyscraper.3D.2018.German.DL...

Old_Stuff
Transformers.2007.German.AC3...
Ip.Man.2.2010.German.DTS.108...
Todfreunde.aka.Bad.Influence...
Animatrix.2003.German.DL.108...
Animatrix.2003.German.DL.720...
Akte.X.S06.German.DTS.DL.108...
The.Beauty.of.Gemina.Minor.S...
ZZ.Top.Live.from.Texas.2008....
Peter.Hase.2018.German.DL.10...
Akte.X.S05.German.DTS.DL.108...
Akte.X.S04.German.DTS.DL.108...
Akte.X.S03.German.DTS.DL.108...
Dunkirk.1958.COMPLETE.BLURAY...
Das.Wunder.von.Manhattan.199...
The.Amazing.Spiderman.2.Rise...

Filme
Honig.im.Kopf.2014.German.DT...
Firefox.1982.German.DL.1080p...
Willow.1988.German.DL.1080p....
Zulu.1964.German.DL.1080p.Bl...
The.Machinist.2004.1080p.Blu...
Slither.Voll.auf.den.Schleim...
Das.Haus.Der.Vergessenen.UNC...
Der.blinde.Fleck.Taeter.Atte...
The.Perfect.Sleep.2009.Germa...
Guardians.of.the.Galaxy.2014...
Critters.4.1992.German.AC3D....
Sophie.Scholl.-.Die.letzten....
Flypaper.Wer.ueberfaellt.hie...
Weisser.Oleander.aka.White.O...
1.Mord.fuer.2.-.Sleuth.2007....
Harry.Brown.2009.German.DTS....
Sin.City.2.A.Dame.to.Kill.fo...
Die.Paepstin.German.DL.1080p...
Brokedown.Palace.Die.Hoffnun...
Ueberfall.auf.die.Queen.Mary...
Ueberfall.auf.die.Queen.Mary...
Con-Man.-.Aufstieg.und.Fall....
72.Stunden.Deine.letzten.3.T...
Bad.Boys.1995.COMPLETE.BLURA...

 
 
Searching.2018.German.DTS.DL.1080p.BluRay.x265-UNFIrED

Jahr: 2018
Genre: Drama, Thriller
Sprache: Deutsch DTS | Englisch DTS
Laufzeit: 1h 42mn
Bitrate: 6 483 Kbps
Format: MKV
Größe: 4.65 GiB
Release:

Beschreibung:

David Kim (John Cho) hat ein gutes Verhältnis zu seiner 16-jährigen Tochter Margot (Michelle La), die noch zur Schule geht. Die beiden kommunizieren viel über Laptops, sei es via Skype oder im Chat. Doch nachdem Margot ihren Vater eines nachts drei Mal erfolglos zu erreichen versucht hat, verschwindet sie spurlos. Erste Nachforschungen ergeben, dass das Mädchen womöglich in die Berge zum Zelten gefahren ist, doch die Spur reicht dem Vater nicht. Er konsultiert die Polizei. Der Fall wird Detective Rosemary Vick (Debra Messing) übertragen, die allerdings keine Hinweise entdecken kann. Als es nach 37 Stunden immer noch keine Spur von Margot gibt, geht David an den Laptop des Mädchens und sucht nach Hinweisen über ihren Verbleib. Bei seiner Suche muss er feststellen, dass er seine Tochter wohl doch nicht so gut kannte, wie er immer gedacht hat…



Complete name                            : unfired-searching-x265.mkv
Format                                   : Matroska
Format version                           : Version 2
File size                                : 4.65 GiB
Duration                                 : 1h 42mn
Overall bit rate                         : 6 483 Kbps
Encoded date                             : UTC 2019-01-27 00:34:05
Writing application                      : mkvmerge v24.0.0 ('Beyond The Pale') 64-bit
Writing library                          : libebml v1.3.6 + libmatroska v1.4.9
DURATION                                 : 01:40:58.416000000
NUMBER_OF_FRAMES                         : 1455
NUMBER_OF_BYTES                          : 7982725
_STATISTICS_WRITING_APP                  : mkvmerge v24.0.0 ('Beyond The Pale') 64-bit
_STATISTICS_WRITING_DATE_UTC             : 2019-01-27 00:34:05
_STATISTICS_TAGS                         : BPS DURATION NUMBER_OF_FRAMES NUMBER_OF_BYTES

Video
ID                                       : 1
Format                                   : HEVC
Format/Info                              : High Efficiency Video Coding
Format profile                           : Main@L4.0
Codec ID                                 : V_MPEGH/ISO/HEVC
Duration                                 : 1h 42mn
Bit rate                                 : 3 336 Kbps
Width                                    : 1 920 pixels
Height                                   : 1 080 pixels
Display aspect ratio                     : 16:9
Frame rate mode                          : Constant
Frame rate                               : 23.976 fps
Color space                              : YUV
Chroma subsampling                       : 4:2:0
Bit depth                                : 8 bits
Bits/(Pixel*Frame)                       : 0.067
Stream size                              : 2.39 GiB (51%)
Writing library                          : x265 2.8+1-478bfe2b7673:[Windows][GCC 7.3.0][64 bit] 8bit+10bit+12bit
Encoding settings                        : cpuid=1111039 / frame-threads=16 / numa-pools=16 / wpp / no-pmode / no-pme / no-psnr / no-ssim / log-level=2 / input-csp=1 / input-res=1920x1080 / interlace=0 / total-frames=147672 / level-idc=0 / high-tier=1 / uhd-bd=0 / ref=4 / no-allow-non-conformance / no-repeat-headers / annexb / no-aud / no-hrd / info / hash=0 / no-temporal-layers / open-gop / min-keyint=23 / keyint=250 / gop-lookahead=0 / bframes=4 / b-adapt=2 / b-pyramid / bframe-bias=0 / rc-lookahead=25 / lookahead-slices=4 / scenecut=40 / radl=0 / no-intra-refresh / ctu=64 / min-cu-size=8 / rect / no-amp / max-tu-size=32 / tu-inter-depth=1 / tu-intra-depth=1 / limit-tu=0 / rdoq-level=2 / dynamic-rd=0.00 / no-ssim-rd / signhide / no-tskip / nr-intra=0 / nr-inter=0 / no-constrained-intra / strong-intra-smoothing / max-merge=3 / limit-refs=3 / limit-modes / me=3 / subme=3 / merange=57 / temporal-mvp / weightp / no-weightb / no-analyze-src-pics / deblock=0:0 / sao / no-sao-non-deblock / rd=4 / no-early-skip / rskip / no-fast-intra / no-tskip-fast / no-cu-lossless / no-b-intra / no-splitrd-skip / rdpenalty=0 / psy-rd=2.00 / psy-rdoq=1.00 / no-rd-refine / no-lossless / cbqpoffs=0 / crqpoffs=0 / rc=crf / crf=19.9 / qcomp=0.60 / qpstep=4 / stats-write=0 / stats-read=0 / ipratio=1.40 / pbratio=1.30 / aq-mode=1 / aq-strength=1.00 / cutree / zone-count=0 / no-strict-cbr / qg-size=32 / no-rc-grain / qpmax=69 / qpmin=0 / no-const-vbv / sar=1 / overscan=0 / videoformat=5 / range=0 / colorprim=2 / transfer=2 / colormatrix=2 / chromaloc=0 / display-window=0 / max-cll=0,0 / min-luma=0 / max-luma=255 / log2-max-poc-lsb=8 / vui-timing-info / vui-hrd-info / slices=1 / no-opt-qp-pps / no-opt-ref-list-length-pps / no-multi-pass-opt-rps / scenecut-bias=0.05 / no-opt-cu-delta-qp / no-aq-motion / no-hdr / no-hdr-opt / no-dhdr10-opt / no-idr-recovery-sei / analysis-reuse-level=5 / scale-factor=0 / refine-intra=0 / refine-inter=0 / refine-mv=0 / no-limit-sao / ctu-info=0 / no-lowpass-dct / refine-mv-type=0 / copy-pic=1 / max-ausize-factor=1.0 / no-dynamic-refine / no-single-sei
Default                                  : Yes
Forced                                   : No

Audio #1
ID                                       : 2
Format                                   : DTS
Format/Info                              : Digital Theater Systems
Mode                                     : 16
Format settings, Endianness              : Big
Codec ID                                 : A_DTS
Duration                                 : 1h 42mn
Bit rate mode                            : Constant
Bit rate                                 : 1 509 Kbps
Channel(s)                               : 6 channels
Channel positions                        : Front: L C R, Side: L R, LFE
Sampling rate                            : 48.0 KHz
Bit depth                                : 24 bits
Compression mode                         : Lossy
Stream size                              : 1.08 GiB (23%)
Language                                 : German
Default                                  : Yes
Forced                                   : No

Audio #2
ID                                       : 3
Format                                   : DTS
Format/Info                              : Digital Theater Systems
Mode                                     : 16
Format settings, Endianness              : Big
Codec ID                                 : A_DTS
Duration                                 : 1h 42mn
Bit rate mode                            : Constant
Bit rate                                 : 1 509 Kbps
Channel(s)                               : 6 channels
Channel positions                        : Front: L C R, Side: L R, LFE
Sampling rate                            : 48.0 KHz
Bit depth                                : 24 bits
Compression mode                         : Lossy
Stream size                              : 1.08 GiB (23%)
Language                                 : English
Default                                  : No
Forced                                   : No

Text #1
ID                                       : 4
Format                                   : VobSub
Muxing mode                              : zlib
Codec ID                                 : S_VOBSUB
Codec ID/Info                            : The same subtitle format used on DVDs
Title                                    : complete
Language                                 : German
Default                                  : No
Forced                                   : No

Text #2
ID                                       : 5
Format                                   : VobSub
Muxing mode                              : zlib
Codec ID                                 : S_VOBSUB
Codec ID/Info                            : The same subtitle format used on DVDs
Title                                    : complete
Language                                 : German
Default                                  : No
Forced                                   : No


Download:
Share Online Share OnlineShare OnlineShare Online
 

Kommentare