DNS SERVER ÄNDERN, um der staatlichen Zensur zu entgehen. Sollten wir von eurem Provider gesperrt werden, nutzt den TOR BROWSER oder ändert euren DNS SERVER.

Filmwünsche können bei uns im Forum abgegeben werden

Wir Speichern Nicht




 
 
 
Top Releases
Searching.2018.MULTI.COMPLET...
Searching.2018.German.DTS.DL...
Mile.22.2018.German.AC3.DL.1...
The.Man.Who.Killed.Don.Quixo...
Prodigy.Uebernatuerlich.2017...
Stolz.und.Vorurteil.und.Zomb...
Upgrade.2018.German.AC3.DL.1...
The.Man.Who.Killed.Don.Quixo...
The.Man.Who.Killed.Don.Quixo...
Searching.2018.German.DL.108...

Cinedubs
Der.Grinch.German.DL.AC3.Dub...
Der.Grinch.German.DL.AC3.Dub...
Phantastische.Tierwesen.Grin...
Phantastische.Tierwesen.Grin...
Climax.2018.German.Dubbed.AC...
Der.Grinch.2018.German.AC3LD...
Der.Grinch.2018.German.AC3LD...
Aquaman.2018.German.DL.AC3.D...
Aquaman.2018.German.DL.AC3.D...
Climax.2018.German.DL.AC3.10...

Neuerscheinungen 2018-19
The.Libertine.2004.German.DL...
Patient.Seven.2016.German.DL...
Siberia.Toedliche.Naehe.2018...
Ein.tolles.Leben.Hast.du.kei...
Siberia.Toedliche.Naehe.2018...
Brokedown.Palace.Die.Hoffnun...
End.of.the.World.2018.COMPLE...
Westernpatrouille.Incident.a...
Elizabeth.Harvest.2018.Germa...
Elizabeth.Harvest.2018.Germa...

XXX
LesbianX.19.01.12.Goldie.Glo...
Nubiles.19.01.13.Kery.For.Yo...
FiLFExtra.E40.Victoria.Rae.B...
MomPov.E428.Petra.XXX.1080p....
TrickySpa.19.01.09.Abella.Da...
WeLiveTogether.19.01.13.Jenn...
KarupsOW.19.01.08.Cala.Crave...
FiLFExtra.E44.Kimmy.Lee.I.Ca...
RKPrime.19.01.10.Angel.Emily...
SexArt.19.01.09.Melissa.Benz...
FiLFExtra.E32.Hailey.Holiday...
BCM.19.01.09.Sophia.Grace.Pa...
TheWhiteBoxxx.19.01.12.Lexi....
MomKnowsBest.19.01.10.Kira.N...
SexArt.19.01.13.Anya.Krey.Te...
PlayboyPlus.19.01.09.Calypso...
LittleCapriceDreams.19.01.10...
OnlyBlowJob.19.01.10.Ania.Ki...
Milfty.19.01.11.Misty.Stone....
LustyGrandmas.19.01.10.Viole...

3D
Die.Reise.zum.Mittelpunkt.de...
Die.Reise.zum.Mittelpunkt.de...
Die.Reise.zum.Mittelpunkt.de...
Kaluoka.Hina.Das.Zauberriff....
Blade.Runner.2049.3D.2017.Ge...
Walhalla.Rising.3D.2009.DUAL...
Sleepwalker.3D.2011.DUAL.COM...
Bis.an.die.Grenzen.des.Unive...
Best.of.3D.vol.13.-.15.GERMA...
Limbradur.und.die.Magie.der....
Kaluoka.Hina.Das.Zauberriff....
Limbradur.und.die.Magie.der....
Smallfoot.3D.2018.COMPLETE.B...
Smallfoot.Ein.eisigartiges.A...
Skyscraper.3D.2018.German.DL...

Old_Stuff
Blade.II.2002.UNCUT.German.A...
Transformers.2007.German.AC3...
Ip.Man.2.2010.German.DTS.108...
Todfreunde.aka.Bad.Influence...
Animatrix.2003.German.DL.108...
Animatrix.2003.German.DL.720...
Akte.X.S06.German.DTS.DL.108...
The.Beauty.of.Gemina.Minor.S...
ZZ.Top.Live.from.Texas.2008....
Peter.Hase.2018.German.DL.10...
Akte.X.S05.German.DTS.DL.108...
Akte.X.S04.German.DTS.DL.108...
Akte.X.S03.German.DTS.DL.108...
Dunkirk.1958.COMPLETE.BLURAY...
Das.Wunder.von.Manhattan.199...

Filme
Compulsion.2013.German.DL.10...
The.Libertine.2004.German.72...
303.2018.1080p.BluRay.x264-U...
So.was.von.da.2018.German.10...
So.was.von.da.2018.German.10...
Nitro.Circus.Der.Film.2012.G...
Honig.im.Kopf.2014.German.DT...
Firefox.1982.German.DL.1080p...
Willow.1988.German.DL.1080p....
Zulu.1964.German.DL.1080p.Bl...
The.Machinist.2004.1080p.Blu...
Slither.Voll.auf.den.Schleim...
Das.Haus.Der.Vergessenen.UNC...
Der.blinde.Fleck.Taeter.Atte...
The.Perfect.Sleep.2009.Germa...
Guardians.of.the.Galaxy.2014...
Critters.4.1992.German.AC3D....
Sophie.Scholl.-.Die.letzten....
Flypaper.Wer.ueberfaellt.hie...
Weisser.Oleander.aka.White.O...
1.Mord.fuer.2.-.Sleuth.2007....
Harry.Brown.2009.German.DTS....
Sin.City.2.A.Dame.to.Kill.fo...
Die.Paepstin.German.DL.1080p...

 
 
The.Libertine.2004.German.720p.BluRay.x264-iNKLUSiON

Jahr: 2004
Genre: Biografie, Drama
Sprache: Deutsch DTS
Laufzeit: 1h 54mn
Bitrate: 6 829 Kbps
Format: MKV
Größe: 5.45 GiB
Release:

Beschreibung:

Dürfen wir vorstellen: John Wilmot, Earl of Rochester, versautestes Blaublut im englischen Königreich! Mitte des 17. Jahrhunderts tobt der Edelmann (Johnny Depp) durch alle Betten – wenn er nicht gerade literarische Geistesblitze aufs Papier pfeffert oder sich volllaufen lässt. Da lockt ein royaler Auftrag: König Charles II. (John Malkovich) braucht ein Theaterstück, um den französischen Botschafter zu beeindrucken. Wilmot verfasst einen Bühnenreißer, der den Monarchen nach allen Regeln der Kunst mit Spott übergießt. Charles ist not amused – mit finsteren Folgen für den Libertine…



Complete name                            : inkl-libertine-720p.mkv
Format                                   : Matroska
Format version                           : Version 4 / Version 2
File size                                : 5.45 GiB
Duration                                 : 1h 54mn
Overall bit rate                         : 6 829 Kbps
Encoded date                             : UTC 2019-01-26 18:50:27
Writing application                      : mkvmerge v24.0.0 ('Beyond The Pale') 32-bit
Writing library                          : libebml v1.3.6 + libmatroska v1.4.9
DURATION                                 : 00:00:37.986000000
NUMBER_OF_FRAMES                         : 11
NUMBER_OF_BYTES                          : 563
_STATISTICS_WRITING_APP                  : mkvmerge v24.0.0 ('Beyond The Pale') 32-bit
_STATISTICS_WRITING_DATE_UTC             : 2019-01-26 18:50:27
_STATISTICS_TAGS                         : BPS DURATION NUMBER_OF_FRAMES NUMBER_OF_BYTES

Video
ID                                       : 1
Format                                   : AVC
Format/Info                              : Advanced Video Codec
Format profile                           : High@L4.1
Format settings, CABAC                   : Yes
Format settings, ReFrames                : 5 frames
Codec ID                                 : V_MPEG4/ISO/AVC
Duration                                 : 1h 54mn
Bit rate                                 : 5 319 Kbps
Width                                    : 1 280 pixels
Height                                   : 544 pixels
Display aspect ratio                     : 2.35:1
Frame rate mode                          : Constant
Frame rate                               : 23.976 fps
Color space                              : YUV
Chroma subsampling                       : 4:2:0
Bit depth                                : 8 bits
Scan type                                : Progressive
Bits/(Pixel*Frame)                       : 0.319
Stream size                              : 4.13 GiB (76%)
Writing library                          : x264 core 157 r2935 545de2f
Encoding settings                        : cabac=1 / ref=5 / deblock=1:0:0 / analyse=0x3:0x113 / me=umh / subme=8 / psy=1 / psy_rd=1.00:0.00 / mixed_ref=1 / me_range=16 / chroma_me=1 / trellis=2 / 8x8dct=1 / cqm=0 / deadzone=21,11 / fast_pskip=0 / chroma_qp_offset=-2 / threads=17 / lookahead_threads=2 / sliced_threads=0 / nr=0 / decimate=1 / interlaced=0 / bluray_compat=0 / constrained_intra=0 / bframes=3 / b_pyramid=2 / b_adapt=1 / b_bias=0 / direct=1 / weightb=1 / open_gop=0 / weightp=2 / keyint=250 / keyint_min=23 / scenecut=40 / intra_refresh=0 / rc_lookahead=50 / rc=2pass / mbtree=1 / bitrate=5319 / ratetol=1.0 / qcomp=0.60 / qpmin=0 / qpmax=69 / qpstep=4 / cplxblur=20.0 / qblur=0.5 / ip_ratio=1.40 / aq=1:1.00
Default                                  : Yes
Forced                                   : No

Audio
ID                                       : 2
Format                                   : DTS
Format/Info                              : Digital Theater Systems
Mode                                     : 16
Format settings, Endianness              : Big
Codec ID                                 : A_DTS
Duration                                 : 1h 54mn
Bit rate mode                            : Constant
Bit rate                                 : 1 509 Kbps
Channel(s)                               : 6 channels
Channel positions                        : Front: L C R, Side: L R, LFE
Sampling rate                            : 48.0 KHz
Bit depth                                : 24 bits
Compression mode                         : Lossy
Stream size                              : 1.20 GiB (22%)
Language                                 : German
Default                                  : Yes
Forced                                   : No

Text
ID                                       : 3
Format                                   : UTF-8
Codec ID                                 : S_TEXT/UTF8
Codec ID/Info                            : UTF-8 Plain Text
Language                                 : German
Default                                  : Yes
Forced                                   : Yes


Download:
Share Online Share OnlineShare OnlineShare Online
 

Kommentare