DNS SERVER AENDERNum der staatlichen Zensur zu umgehen. Sollten wir von eurem Provider geseprrt werden, nutzt den TOR BROWSER oder ändert euren DNS SERVER.

Filmwünsche können bei uns im Forum abgegeben werden

Wir Speichern Nicht




 
 
 
Top Releases
Nur.Gott.kann.mich.richten.2...
Deadpool.2.2018.THEATRiCAL.M...
Stronger.2017.MULTi.COMPLETE...
Ghost.Stories.Glaubst.du.an....
Please.Stand.By.2017.GERMAN....
Please.Stand.By.2017.GERMAN....
Deadpool.2.Super.Duper.Cut.2...
David.Brent.Life.on.the.Road...
David.Brent.Life.on.the.Road...
Amanda.Knox.2016.German.DL.D...

Cinedubs
The.Equalizer.2.TS.LD.German...
Der.Hauptmann.2017.German.AA...
Der.Hauptmann.2017.German.AA...
Ghost.Stories.2017.German.AC...
Ghost.Stories.2017.German.AC...
Oceans.8.German.DL.AC3.Dubbe...
Oceans.8.German.DL.AC3.Dubbe...
Hereditary.Das.Vermaechtnis....
Hereditary.Das.Vermaechtnis....
Oceans.8.2018.German.DL.AC3D...

Neuerscheinungen 2017-18
Bodycheck.Youngblood.1986.MU...
The.End.2017.GERMAN.DUAL.COM...
The.End.2017.GERMAN.1080p.Bl...
Vater.des.Jahres.2018.German...
The.End.2017.GERMAN.720p.Blu...
Derren.Brown.The.Push.2018.G...
Derren.Brown.The.Push.2018.G...
Das.Vermaechtnis.des.Weisswe...
Das.Vermaechtnis.des.Weisswe...
Barry.2016.German.DL.720p.WE...

XXX
PixAndVideo.18.08.20.Mary.Ka...
PlumperPass.18.08.20.Serenit...
PornMegaLoad.18.08.16.Zoe.Bl...
PornMegaLoad.18.08.16.Helen....
PervMom.18.07.31.Nina.Kayy.X...
PornMegaLoad.18.08.16.Claudi...
PornstarPlatinum.18.08.21.Am...
PornMegaLoad.18.08.15.Ana.Ro...
PervMom.18.07.19.Christiana....
PlayboyPlus.18.08.23.Elina.L...
Private.18.08.20.Private.Cas...
PlayboyPlus.18.08.17.Maija.R...
PornMegaLoad.18.08.16.Eliza....
PornFidelity.E756.Dakota.Sky...
Private.18.08.17.Lullu.Gun.M...
PornMegaLoad.18.08.17.Luna.B...
Private.18.08.21.Private.Cas...
Private.Specials.219.Anal.Lo...
Overstuffed.XXX.720p.WEBRip....
PornstarPlatinum.18.07.24.Am...

3D
Avengers.Infinity.War.3D.201...
Rampage.Big.Meets.Bigger.3D....
Rampage.Big.Meets.Bigger.3D....
Rampage.Big.Meets.Bigger.3D....
Winter.Games.3D.2013.DUAL.CO...
Tomb.Raider.3D.2018.German.7...
Rampage.Big.Meets.Bigger.3D....
Rampage.Big.Meets.Bigger.3D....
Tomb.Raider.3D.2018.MULTi.CO...
Pacific.Rim.Uprising.3D.2018...
Ready.Player.One.3D.2018.Ger...
Rampage.-.Big.Meets.Bigger.2...
Ready.Player.One.2018.3D.HOU...
Ready.Player.One.2018.3D.HSB...
Ready.Player.One.3D.2018.MUL...

Old_Stuff
21.2008.German.DL.1080p.BluR...
Achtung.fertig.WK.Swissgerma...
The.Ouija.Exorcism.2015.MULT...
Meine.liebe.Rabenmutter.germ...
Da.Vincis.Demons.S01.Complet...
Eragon.Das.Vermaechtnis.der....
Adele.und.das.Geheimnis.des....
Die.fabelhafte.Welt.der.Amel...
Haus.des.Geldes.S01.German.M...
How.I.Met.Your.Mother.S01.Ge...
The.Dark.Knight.Rises.2012.M...
Weissensee.S03.2015.GERMAN.C...
Weissensee.S01+S02.2010.GERM...
Die.Unglaublichen.-.The.Incr...
Der.grosse.Trick.1978.German...

Filme
The.Last.Man.On.Earth.S04.Ge...
The.Last.Man.On.Earth.S04.Ge...
Arrow.S06.GERMAN.DL.1080p.HD...
Arrow.S06.GERMAN.DL.720p.HDT...
Razorback.Kampfkoloss.der.Ho...
Rails.and.Ties.-.Aufbruch.in...
Deadpool.2.Super.Duper.Cut.2...
Passenger.Legs.of.Steel.2015...
Fear.The.Walking.Dead.S04.Ge...
Fear.The.Walking.Dead.S04.Ge...
Complications.S01.COMPLETE.G...
Blood.And.Flowers.Der.Waecht...
Casablanca.1942.German.AC3.D...
The.Remains.2016.German.DL.1...
The.Punisher.2004.UNCUT.Germ...
Ein.Kind.wartet.1963.German....
Leatherface.Texas.Chainsaw.M...
Leatherface.Texas.Chainsaw.M...
Todeszug.nach.Yuma.2007.Germ...
Cabal.Die.Brut.Der.Nacht.Dir...
Opfer.einer.grossen.Liebe.19...
Party.Animals.wilder.gehts.n...
Draculas.Hexenjagd.GERMAN.19...
A.Star.Is.Born.1937.German.A...

 
 
Under.the.Dome.S03.COMPLETE.GERMAN.DUBBED.DL.720p.WebHD.h264-euHD

Jahr: 2015
Genre: Drama | Mystery | Sci-Fi
Sprache: Deutsch AC3 | Englisch AC3
Laufzeit: 41min je Folge
Bitrate: 4000 Kbps
Format: MKV
Größe: 1,4 GB je Folge
Release:

Beschreibung:

Die Serie handelt von der neuenglischen Kleinstadt Chester’s Mill, die eines Tages von einer durchsichtigen und schalldichten Kuppel von der Außenwelt abgeschnitten wird. Durch das unerwartete Auftauchen der Kuppel kommt es zu mehreren Unfällen, wodurch zwölf Menschen getötet werden. Während außerhalb der Kuppel das Militär Stellung bezieht, versuchen die Eingeschlossenen mit der Situation klarzukommen. Neben der Suche nach Antworten über die Kuppel, behandelt die Serie ebenfalls die einzelnen Geheimnisse der Bewohner.

 

enthaltene Folgen (Staffel komplett):

Under.the.Dome.S03E01E02.Der.naechste.Schritt.Kokons.GERMAN.DUBBED.DL.720p.WebHD.REPACK.h264-euHD 

Under.the.Dome.S03E03.Der.stille.Ruf.GERMAN.DUBBED.DL.720p.WebHD.h264-euHD

Under.the.Dome.S03E04.Hunger.GERMAN.DUBBED.DL.720p.WebHD.h264-euHD

Under.the.Dome.S03E05.Alaska.GERMAN.DUBBED.DL.720p.WebHD.h264-euHD 

Under.the.Dome.S03E06.Im.Kaefig.GERMAN.DUBBED.DL.720p.WebHD.h264-euHD 

Under.the.Dome.S03E07.Welt.in.Flammen.GERMAN.DUBBED.DL.720p.WebHD.h264-euHD

Under.the.Dome.S03E08.Breaking.Point.GERMAN.DUBBED.DL.720p.WebHD.h264-euHD

Under.the.Dome.S03E09.Plan.B.GERMAN.DUBBED.DL.720p.WebHD.h264-euHD

Under.the.Dome.S03E10.Legacy.GERMAN.DUBBED.DL.720p.WebHD.h264-euHD NEU

Under.the.Dome.S03E11.Love.Is.a.Battlefield.GERMAN.DUBBED.DL.720p.WebHD.h264-euHD

Under.the.Dome.S03E12.Das.letzte.Licht.GERMAN.DUBBED.DL.720p.WebHD.h264-euHD

Under.the.Dome.S03E13.Der.Feind.im.Inneren.GERMAN.DUBBED.DL.720p.WebHD.h264-euHD NEU



General
Complete name                            : Under.the.Dome.S03E01E02.Der.naechste.Schritt.Kokons.GERMAN.DUBBED.DL.720p.WebHD.REPACK.h264-euHD\euhd-under-the-dome-s03e01e02-720p-rp.mkv
Format                                   : Matroska
Format version                           : Version 2
File size                                : 2.63 GiB
Duration                                 : 1h 19mn
Overall bit rate                         : 4 726 Kbps
Encoded date                             : UTC 2015-08-26 20:47:03
Writing application                      : mkvmerge v5.1.0 ('And so it goes') built on Nov 28 2011 23:58:28
Writing library                          : libebml v1.2.3 + libmatroska v1.3.0

Video
ID                                       : 1
Format                                   : AVC
Format/Info                              : Advanced Video Codec
Format profile                           : High@L3.1
Format settings, CABAC                   : No
Format settings, ReFrames                : 2 frames
Codec ID                                 : V_MPEG4/ISO/AVC
Duration                                 : 1h 19mn
Bit rate                                 : 4 056 Kbps
Width                                    : 1 280 pixels
Height                                   : 720 pixels
Display aspect ratio                     : 16:9
Frame rate mode                          : Constant
Frame rate                               : 25.000 fps
Color space                              : YUV
Chroma subsampling                       : 4:2:0
Bit depth                                : 8 bits
Scan type                                : Progressive
Bits/(Pixel*Frame)                       : 0.176
Stream size                              : 2.26 GiB (86%)
Default                                  : Yes
Forced                                   : No
Color primaries                          : BT.709
Transfer characteristics                 : BT.709
Matrix coefficients                      : BT.709

Audio #1
ID                                       : 2
Format                                   : AC-3
Format/Info                              : Audio Coding 3
Format profile                           : Dolby Digital
Mode extension                           : CM (complete main)
Format settings, Endianness              : Big
Codec ID                                 : A_AC3
Duration                                 : 1h 19mn
Bit rate mode                            : Constant
Bit rate                                 : 192 Kbps
Channel(s)                               : 2 channels
Channel positions                        : Front: L R
Sampling rate                            : 48.0 KHz
Bit depth                                : 16 bits
Compression mode                         : Lossy
Stream size                              : 110 MiB (4%)
Language                                 : German
Default                                  : Yes
Forced                                   : No

Audio #2
ID                                       : 3
Format                                   : AC-3
Format/Info                              : Audio Coding 3
Mode extension                           : CM (complete main)
Format settings, Endianness              : Big
Codec ID                                 : A_AC3
Duration                                 : 1h 19mn
Bit rate mode                            : Constant
Bit rate                                 : 384 Kbps
Channel(s)                               : 6 channels
Channel positions                        : Front: L C R, Side: L R, LFE
Sampling rate                            : 48.0 KHz
Bit depth                                : 16 bits
Compression mode                         : Lossy
Stream size                              : 219 MiB (8%)
Language                                 : English
Default                                  : No
Forced                                   : No



Download:
Share-Online.biz Share-Online.bizShare-Online.bizShare-Online.biz | Uploaded.net Uploaded.netUploaded.netUploaded.net
 

Kommentare